Ribelle The Brave 2012 iTALiAN MD HDCAM XviD MeP
[ | Torrent in English | 1.11 GB]
Download this torrent
(Magnet Only for VIP )
Health:
Seeds: 0
Leechers: 0
Completed:
Last Checked: 25-09-2020 23:57:24 : Click to UPDATE STATS! [This can take some time!]
0
0
0
0
0
  



Description | Information (i): Show or Hide Description



Code:
General
Complete name : F:Ribelle.The.Brave.2012.iTALiAN.MD.HDCAM.XviD.MePRibelle.The.Brave.2012.iTALiAN.MD.HDCAM.XviD.CD1.MeP.avi
Format : AVI
Format/Info : Audio Video Interleave
File size : 663 MiB
Duration : 43mn 34s
Overall bit rate : 2 128 Kbps
Writing library : VirtualDub build 29808/release

Video
ID : 0
Format : MPEG-4 Visual
Format profile : Advanced Simple@L5
Format settings, BVOP : 2
Format settings, QPel : No
Format settings, GMC : No warppoints
Format settings, Matrix : Default (H.263)
Muxing mode : Packed bitstream
Codec ID : XVID
Codec ID/Hint : XviD
Duration : 43mn 34s
Bit rate : 1 989 Kbps
Width : 800 pixels
Height : 400 pixels
Display aspect ratio : 2.000
Frame rate : 29.970 fps
Color space : YUV
Chroma subsampling : 4:2:0
Bit depth : 8 bits
Scan type : Progressive
Compression mode : Lossy
Bits/(Pixel*Frame) : 0.207
Stream size : 620 MiB (93%)
Writing library : XviD 64

Audio
ID : 1
Format : MPEG Audio
Format version : Version 1
Format profile : Layer 3
Mode : Joint stereo
Mode extension : MS Stereo
Codec ID : 55
Codec ID/Hint : MP3
Duration : 43mn 34s
Bit rate mode : Constant
Bit rate : 128 Kbps
Channel(s) : 2 channels
Sampling rate : 48.0 KHz
Compression mode : Lossy
Stream size : 39.9 MiB (6%)
Alignment : Split accross interleaves
Interleave, duration : 33 ms (1.00 video frame)
Interleave, preload duration : 500 ms
SCREENS:
Code:
GRAZIE MEP PEL IL FILMATO
RIMANETE IN SEED
Torrent Info:Type: CAMRip | REC | Size: 1.11 GB | Hash: System protected! | Added on: 02.02.2013 14:04:11 | Views: 102 | Hits: 16
Language:English  English
Added By:Anonymous
Thanks By:No one yet.
Ratings:See Votes Rate this torrent! (Log in now! to rate it)

 SIMILAR TORRENTS
Type Name Size Added S L
La siciliana ribelle [ITA] [2009 / DVDRip] [Drama] La siciliana ribelle [ITA] [2009 / DVDRip] [Drama]
700.00 B 2009-12-06 00:00:00 10 5
Uploader Reputatation:   18616   Say Thanks with one point of reputation:

 Recommended
31275 | 485 | 90
183 | 3 | 5
1 | 6 | 0
639 | 21 | 3
9 | 0 | 0

 Comment's: ADD or Hide Comments

Online Since 10.09.2011 - 2020 | GitHub: Jackett | GitHub: Web Extensions PT | XTR: TVForums | YOUTUBE: XTR | OKRU: Media | REDTube: XXX Promo
Ora:(
  • :
  • :
)