Broken City 2013 CAMRip English
[ | Torrent in English | 747.52 MB]
Download this torrent
(Magnet Only for VIP )
Health:
Seeds: 0
Leechers: 0
Completed:
Last Checked: 20-09-2020 18:41:23 : Click to UPDATE STATS! [This can take some time!]
0
0
0
0
0
  



Description | Information (i): Show or Hide Description



Cover:



Release info:

[code]General
Format                                   : Matroska
Format version                           : Version 4 / Version 2
File size                                : 748 MiB
Duration                                 : 1h 42mn
Overall bit rate                         : 1 024 Kbps
Movie name                               : Broken City 2013 CAMRip English

Video
ID                                       : 1
Format                                   : MPEG-4 Visual
Format profile                           : Advanced Simple@L5
Format settings, BVOP                    : Yes
Format settings, QPel                    : No
Format settings, GMC                     : No warppoints
Format settings, Matrix                  : Default (H.263)
Codec ID                                 : V_MS/VFW/FOURCC / XVID
Codec ID/Hint                            : XviD
Duration                                 : 1h 42mn
Bit rate                                 : 876 Kbps
Width                                    : 672 pixels
Height                                   : 320 pixels
Display aspect ratio                     : 2.100
Frame rate mode                          : Constant
Frame rate                               : 29.970 fps
Color space                              : YUV
Chroma subsampling                       : 4:2:0
Bit depth                                : 8 bits
Scan type                                : Progressive
Compression mode                         : Lossy
Bits/(Pixel*Frame)                       : 0.136
Stream size                              : 639 MiB (86%)
Title                                    : Broken City 2013 CAMRip English
Writing library                          : XviD 64
Language                                 : English
Default                                  : Yes
Forced                                   : No

Audio
ID                                       : 2
Format                                   : MPEG Audio
Format version                           : Version 1
Format profile                           : Layer 3
Mode                                     : Joint stereo
Mode extension                           : MS Stereo
Codec ID                                 : A_MPEG/L3
Codec ID/Hint                            : MP3
Duration                                 : 1h 42mn
Bit rate mode                            : Constant
Bit rate                                 : 128 Kbps
Channel(s)                               : 2 channels
Sampling rate                            : 48.0 KHz
Compression mode                         : Lossy
Stream size                              : 93.4 MiB (12%)
Title                                    : Broken City 2013 CAMRip English
Writing library                          : LAME3.99r
Encoding settings                        : -m j -V 4 -q 2 -lowpass 17 -b 128
Language                                 : English
Default                                  : Yes
Forced                                   : No



Source:
credit to original movie ripper TiCKLE.TiME (Thanks)[/code]

IMDB Info:

[code]In a city rife with injustice, ex-cop Billy Taggart seeks redemption and revenge after being double-crossed and then framed by its most powerful figure: Mayor Nicholas Hostetler.

Allen Hughes
Writer: Brian Tucker
Stars: Mark Wahlberg, Russell Crowe and Catherine Zeta-Jones

Crime | Drama | Thriller [/code]

http://www.imdb.com/title/tt1235522/

Screen Shot:




Torrent Info:Type: CAMRip | REC | Size: 747.52 MB | Hash: System protected! | Added on: 30.01.2013 13:05:54 | Views: 138 | Hits: 18
Language:English  English
Added By:TorReviver
Thanks By:No one yet.
Ratings:See Votes Rate this torrent! (Log in now! to rate it)

 SIMILAR TORRENTS
Type Name Size Added S L
Broken.City.2013.NEWCAM.XviD.-.MATiNE Broken.City.2013.NEWCAM.XviD.-.MATiNE
1.35 GB 2013-02-02 06:38:05 1624 0
Broken City 2013 NEWCAM XviD - MATiNE[xtrtorrents.ws] Broken City 2013 NEWCAM XviD - MATiNE[xtrtorrents....
1.35 GB 2013-02-20 19:16:36 1624 0
Broken.City.2013.iTALiAN.MD.CAM.XviD-REV.avi Broken.City.2013.iTALiAN.MD.CAM.XviD-REV.avi
1.37 GB 2013-03-11 01:37:27 355 107
La Trama (Broken City)[TS-Screener][Ingles Subt??tulo Espanol][Terror].avi La Trama (Broken City)[TS-Screener][Ingles Subt??t...
985.26 MB 2013-02-27 03:55:00 17 2
Broken City / ????? ?????? [2013 / BDRip] [Crime / Thriller / Drama] Broken City / ????? ?????? [2013 / BDRip] [Crime /...
1.46 kB 2013-04-20 00:00:00 10 5
Uploader Reputatation:   412   Say Thanks with one point of reputation:

 Recommended
0 | 3 | 0
20640 | 99 | 30
0 | 3 | 0
0 | 0 | 0
1 | 3 | 0

 Comment's: ADD or Hide Comments

Online Since 10.09.2011 - 2020 | GitHub: Jackett | GitHub: Web Extensions PT | XTR: TVForums | YOUTUBE: XTR | OKRU: Media | REDTube: XXX Promo
Ora:(
  • :
  • :
)