Here Comes The Boom 2012 720p BRRIP XVID AC3 - 26k
[ | Torrent in English | 2.36 GB]
Download this torrent
(Magnet Only for VIP )
Health:
Seeds: 1624
Leechers: 0
Completed:
Last Checked: 04-01-2021 12:36:07 : Click to UPDATE STATS! [This can take some time!]
0
0
0
0
0
  



Description | Information (i): Show or Hide Description



General
Complete name                            : Here Comes The Boom 2012 720p BRRIP XVID AC3 - 26k.avi
Format                                   : AVI
Format/Info                              : Audio Video Interleave
Format profile                           : OpenDML
Format settings                          : rec
File size                                : 2.30 GiB
Duration                                 : 1h 44mn
Overall bit rate                         : 3 134 Kbps

Video
ID                                       : 0
Format                                   : MPEG-4 Visual
Format profile                           : Advanced Simple@L5
Format settings, BVOP                    : 2
Format settings, QPel                    : No
Format settings, GMC                     : No warppoints
Format settings, Matrix                  : Default (H.263)
Codec ID                                 : XVID
Codec ID/Hint                            : XviD
Duration                                 : 1h 44mn
Bit rate                                 : 2 808 Kbps
Width                                    : 1 280 pixels
Height                                   : 688 pixels
Display aspect ratio                     : 1.85:1
Frame rate                               : 23.976 fps
Color space                              : YUV
Chroma subsampling                       : 4:2:0
Bit depth                                : 8 bits
Scan type                                : Progressive
Compression mode                         : Lossy
Bits/(Pixel*Frame)                       : 0.133
Stream size                              : 2.06 GiB (90%)


Audio
ID                                       : 1
Format                                   : AC-3
Format/Info                              : Audio Coding 3
Mode extension                           : CM (complete main)
Format settings, Endianness              : Big
Codec ID                                 : 2000
Duration                                 : 1h 44mn
Bit rate mode                            : Constant
Bit rate                                 : 320 Kbps
Channel(s)                               : 6 channels
Channel positions                        : Front: L C R, Side: L R, LFE
Sampling rate                            : 48.0 KHz
Bit depth                                : 16 bits
Compression mode                         : Lossy
Stream size                              : 240 MiB (10%)
Alignment                                : Aligned on interleaves
Interleave, duration                     : 64 ms (1.53 video frames)
Interleave, preload duration             : 192 ms
Torrent Info:Type: BRRip | BDRip | HDRip | Size: 2.36 GB | Hash: System protected! | Added on: 29.01.2013 03:07:39 | Views: 110 | Hits: 10
Language:English  English
Added By:Anonymous
Thanks By:No one yet.
Ratings:See Votes Rate this torrent! (Log in now! to rate it)

 SIMILAR TORRENTS
Type Name Size Added S L
Pink - Here Comes The Weekend ft. Eminem.mp3 Pink - Here Comes The Weekend ft. Eminem.mp3
10.32 MB 2013-02-20 15:51:03 1624 0
The Gaslight Anthem-Here Comes My Man-CONVERT-x264-2012-SRP The Gaslight Anthem-Here Comes My Man-CONVERT-x264...
54.99 MB 2013-02-20 15:58:18 1624 0
Here Comes The Boom 2012 720p BRRIP XVID AC3 - 26k Here Comes The Boom 2012 720p BRRIP XVID AC3 - 26k
2.36 GB 2013-02-20 19:30:54 1624 0
HardX - Vanna Bardot - Here Comes Vanna HardX - Vanna Bardot - Here Comes Vanna
540.43 MB 2020-02-11 06:47:42 194 147
Here Comes The Boom[2012]BRRip 720p H264-ETRG Here Comes The Boom[2012]BRRip 720p H264-ETRG
1.50 GB 2013-02-27 23:13:12 170 70
Uploader Reputatation:   18616   Say Thanks with one point of reputation:

 Recommended
0 | 8 | 0
52 | 12 | 0
136 | 0 | 19
1 | 1 | 0
2 | 0 | 14

 Comment's: ADD or Hide Comments

Online Since 10.09.2011 - 2021 | YouTube: Media | GitHub: Jackett | GitHub: Web Extensions PT | XTR: TVForums | YOUTUBE: XTR Media | OKRU: Media | REDTube: XXX Promo
Ora:(
  • :
  • :
)