ExtremlymTorrents 🔥 V4.3 : Download Free 🎁 "Flo Rida - Let It Roll {M4A+MP4} (1080p) x264 [VX] [P2PDL]" (Descarca Gratuit)
 
Flo Rida - Let It Roll {M4A+MP4} (1080p) x264 [VX] [P2PDL]
[ | Torrent in English | 46.55 MB]

Download this torrent
(Magnet Only for VIP )
Health:
Seeds: 0
Leechers: 0
Completed:
Click to UPDATE STATS! [This can take some time!]

Tweet


  



Description | Information (i): Show or Hide Description




Release Flo Rida - Let It Roll (2012)

                                            1080p Full HD MP4 Video
                                                           +
                                             128 Kbps/VBR M4A Audio
[code]
General
Format                         : MPEG-4
Format profile                 : Base Media / Version 2
Codec ID                       : mp42
File size                      : 42.8 MiB
Duration                       : 3mn 16s
Overall bit rate mode          : Variable
Overall bit rate               : 1 829 Kbps

Video
ID                             : 1
Format                         : AVC
Format/Info                    : Advanced Video Codec
Width                          : 1 920 pixels
Height                         : 1 080 pixels
Display aspect ratio           : 16:9
Frame rate mode                : Variable
Frame rate                     : 23.976 fps
Minimum frame rate             : 23.974 fps
Maximum frame rate             : 23.981 fps
Color space                    : YUV
Chroma subsampling             : 4:2:0
Bit depth                      : 8 bits
Scan type                      : Progressive
Bits/(Pixel*Frame)             : 0.034
Stream size                    : 39.8 MiB (93%)
Writing library                : x264 core 128

Audio
ID                             : 2
Format                         : AAC
Format/Info                    : Advanced Audio Codec
Codec ID                       : 40
Duration                       : 3mn 16s
Bit rate mode                  : Variable
Bit rate                       : 125 Kbps
Channel(s)                     : 2 channels
Channel positions              : Front: L R
Sampling rate                  : 48.0 KHz
Stream size                    : 2.93 MiB (7%)

Subtitles                      : No[/code]

Screens:




Thumbs:



------------------------------------------------------------------------

[code]Notes:

* Recommended to use latest version VLC Media Player.
* Install shark007 codecs in case of any kind of problem in playback (For non-VLC Media Player users).
* Alternatively, install Core AVC codecs, the fastest decoder that there is coupled with Community Center Codec Pack and play on Windows Media Player Classic.

Greets to: VYTO, a2zRG, Sheychi, Chew,staff members at ExtraTorrent, TPB, H33T, KAT, 1337x, PublicHD, Ahashare, TorrentMafia, BTScene, P2PDL, and all others

Encoder Notes: Looking For Early Access To Anything You Can Provide DVDScr, R5, DVDRips, BluRay, Direct Audio, Early Music
Releases, Seedboxes, Links, Dedicated Servers anything u can provide, Advance / Promo CDs/DVDs. If You Got anything to
offer contact me at "prg@hush.com"[/code]



Torrent Info:Type: 1080p HD | Size: 46.55 MB | Hash: System protected! | Added on: 29.11.2012 02:27:43 | Views: 127 | Hits: 12
Language:English  English
Added By:VitaminX
ExtremlymTorrents Android / iOS App:
Publicity 2:How to make money on ExtremlymTorrents? / Cum să faci bani pe ExtremlymTorrents ?
Publicity 3:
Thanks By:No one yet.

Ratings:See Votes Rate this torrent! (Log in now! to rate it)

Uploader Reputatation:   0   Say Thanks with one point of reputation:


 
Comments's: ADD or Hide Comments


Mirror: XTRTorrents.ws | XTR: TVForums | YOUTUBE: XTR
Ora:(
  • :
  • :
)