ExtremlymTorrents 🔥 V4.3 : Download Free 🎁 "Clash of the Titans (2010) DVDRip XviD-MAXSPEED" (Descarca Gratuit)
 
Clash of the Titans (2010) DVDRip XviD-MAXSPEED
[ | Torrent in English | 1.27 GB]

Download this torrent
(Magnet Only for VIP )
Health:
Seeds: 116242
Leechers: 403
Completed: 10147 

Tweet


  

Description / Information (i): Show or Hide Description



Format : AVI
Format/Info : Audio Video Interleave
Format profile : OpenDML
File size : 1.26 GiB
Duration : 1h 46mn
Overall bit rate : 1 707 Kbps
Writing application : VirtualDubMod 1.5.10.2 (build 2542/release)
Writing library : VirtualDubMod build 2542/release
Original source form : MAX TORRENTZ
Copyright : SIGISMUNT

Video
ID : 0
Format : MPEG-4 Visual
Format profile : E-mail
Format settings, BVOP : Yes
Format settings, QPel : No
Format settings, GMC : No warppoints
Format settings, Matrix : Custom
Muxing mode : Packed bitstream
Codec ID : XVID
Codec ID/Hint : XviD
Duration : 1h 46mn
Bit rate : 1 512 Kbps
Width : 720 pixels
Height : 304 pixels
Display aspect ratio : 2.35:1
Frame rate : 23.976 fps
Resolution : 24 bits
Colorimetry : 4:2:0
Scan type : Progressive
Bits/(Pixel*Frame) : 0.288
Stream size : 1.12 GiB (89%)
Writing library : XviD 1.2.1 (UTC 2008-12-04)

Audio
ID : 1
Format : MPEG Audio
Format version : Version 1
Format profile : Layer 3
Codec ID : 55
Codec ID/Hint : MP3
Duration : 1h 46mn
Bit rate mode : Constant
Bit rate : 192 Kbps
Channel(s) : 2 channels
Sampling rate : 48.0 KHz
Resolution : 16 bits
Stream size : 146 MiB (11%)
Alignment : Aligned on interleaves
Interleave, duration : 500 ms

Source: 720p Bluray


How To Get Your Maxspeed (uTorrent)

Torrent Client - Preferences - Bandwidth - Number of connections - Set aprox. 500 for each
Torrent Client - Preferences - BiTorrent - Protocol Encryption - Forced
Bandwidth Allocation - High (Set download/upload limit - Unlimited)
Stop Other Active Torrents - Start downloading and wait for connections
Enjoy and Seed for at least 1:1 ratio. Don't forget to say thanks/leave reviews.
Also please spread the link where you found this torrent to your friends.
Don't trust IMDb robot or bad ratings,always watch some trailers first.
Ignore online streaming spam sites and fake stupid uploads/comments.
If you need translation subs visit some subtitles sites.
Recommended movie player VLC PLAYER.
Torrent Info:Type: DVDRip | Size: 1.27 GB | Hash: System protected! | Added on: 27-11-2012 00:38:19 | Views: 76 | Hits: 5
Language:English  English
Added By:Extremlym
ExtremlymTorrents Android / iOS App:
Publicity 2:How to make money on ExtremlymTorrents? / Cum să faci bani pe ExtremlymTorrents ?
Publicity 3:
Thanks By:No one yet.

Ratings:See Votes Rate this torrent! (Log in now! to rate it)

Uploader Reputatation:   18615   Say Thanks with one point of reputation:


 
Comments's: ADD or Hide Comments

DEDSEC:Forums / XTR:TVForums / Radio: Online!


Ora:(
  • :
  • :
)