Glazed Grannies XXX DVDRip x264
[ Milf , Big Butts , Big Tits | Torrent in English | 1.11 GB]
Only VIPOnly VIP's can download this torrent.
(Magnet Only for VIP )
Health:
Seeds: 15
Leechers: 2
Completed: 3360 
Last Checked: 25-02-2021 10:50:09 : Click to UPDATE STATS! [This can take some time!]
0
0
0
0
0
  



Description | Information (i): Show or Hide Description

Video
ID : 1
Format : AVC
Format/Info : Advanced Video Codec
Format profile : High@L3.1
Format settings : CABAC / 5 Ref Frames
Format settings, CABAC : Yes
Format settings, Reference frames : 5 frames
Codec ID : avc1
Codec ID/Info : Advanced Video Coding
Duration : 1 h 56 min
Bit rate : 1 225 kb/s
Maximum bit rate : 3 868 kb/s
Width : 720 pixels
Height : 408 pixels
Display aspect ratio : 16:9
Frame rate mode : Constant
Frame rate : 29.970 (30000/1001) FPS
Color space : YUV
Chroma subsampling : 4:2:0
Bit depth : 8 bits
Scan type : Progressive
Bits/(Pixel*Frame) : 0.139
Stream size : 1.00 GiB (90%)
Writing library : x264 core 157 r2969 d4099dd
Encoding settings : cabac=1 / ref=5 / deblock=1:0:0 / analyse=0x3:0x113 / me=hex / subme=8 / psy=1 / psy_rd=1.00:0.00 / mixed_ref=1 / me_range=16 / chroma_me=1 / trellis=2 / 8x8dct=1 / cqm=0 / deadzone=21,11 / fast_pskip=0 / chroma_qp_offset=-2 / threads=13 / lookahead_threads=2 / sliced_threads=0 / nr=0 / decimate=1 / interlaced=0 / bluray_compat=0 / constrained_intra=0 / bframes=3 / b_pyramid=2 / b_adapt=1 / b_bias=0 / direct=3 / weightb=1 / open_gop=0 / weightp=2 / keyint=300 / keyint_min=29 / scenecut=40 / intra_refresh=0 / rc_lookahead=50 / rc=crf / mbtree=1 / crf=19.0 / qcomp=0.60 / qpmin=0 / qpmax=69 / qpstep=4 / ip_ratio=1.40 / aq=1:1.00
Encoded date : UTC 2021-01-17 02:07:18
Tagged date : UTC 2021-01-19 11:30:50
Codec configuration box : avcC

Audio
ID : 2
Format : AAC LC
Format/Info : Advanced Audio Codec Low Complexity
Codec ID : mp4a-40-2
Duration : 1 h 56 min
Source duration : 1 h 56 min
Bit rate mode : Variable
Bit rate : 128 kb/s
Maximum bit rate : 146 kb/s
Channel(s) : 2 channels
Channel layout : L R
Sampling rate : 48.0 kHz
Frame rate : 46.875 FPS (1024 SPF)
Compression mode : Lossy
Stream size : 107 MiB (9%)
Source stream size : 107 MiB (9%)
Default : Yes
Alternate group : 1
Tagged date : UTC 2021-01-19 11:30:50
Torrent Info:Type: Porn HD -[+18] -xXx- | Size: 1.11 GB | Hash: System protected! | Added on: 25.01.2021 14:22:46 | Views: 10 | Hits: 0
Language:English  English
Added By:TAEN
Thanks By:No one yet.
Ratings:See Votes Rate this torrent! (Log in now! to rate it)

 SIMILAR TORRENTS
Type Name Size Added S L
TittyAttack - Jenna Foxx - Glazed Gazongas TittyAttack - Jenna Foxx - Glazed Gazongas
265.93 MB 2019-10-30 07:18:12 2 1
Uploader Reputatation:   13   Say Thanks with one point of reputation:

 Recommended
0 | 0 | 0
320 | 4 | 0
0 | 0 | 0
1 | 1 | 0
438 | 6 | 0

 Comment's: ADD or Hide Comments

Online Since 10.09.2011 - 2021 | YouTube: Media | GitHub: Jackett | GitHub: Web Extensions PT | XTR: TVForums | YOUTUBE: XTR Media | OKRU: Media | REDTube: XXX Promo
Ora:(
  • :
  • :
)