A Hotwife Is A Happy Wife 3 XXX iNTERNAL 720p WEBRiP MP4
[ Milf , Big Butts , Big Tits | Torrent in English | 6.69 GB]
Only VIPOnly VIP's can download this torrent.
(Magnet Only for VIP )
Health:
Seeds: 4
Leechers: 0
Completed:
Last Checked: 25-02-2021 10:49:59 : Click to UPDATE STATS! [This can take some time!]
0
0
0
0
0
  



Description | Information (i): Show or Hide Description

Video
ID : 1
Format : AVC
Format/Info : Advanced Video Codec
Format profile : Main@L4.1
Format settings : CABAC / 2 Ref Frames
Format settings, CABAC : Yes
Format settings, Reference frames : 2 frames
Format settings, GOP : M=1, N=47
Codec ID : avc1
Codec ID/Info : Advanced Video Coding
Duration : 2 h 36 min
Bit rate mode : Variable
Bit rate : 5 983 kb/s
Maximum bit rate : 768 kb/s
Width : 1 280 pixels
Height : 720 pixels
Display aspect ratio : 16:9
Frame rate mode : Variable
Frame rate : 23.976 FPS
Minimum frame rate : 10.394 FPS
Maximum frame rate : 23.976 FPS
Color space : YUV
Chroma subsampling : 4:2:0
Bit depth : 8 bits
Scan type : Progressive
Bits/(Pixel*Frame) : 0.271
Stream size : 6.55 GiB (98%)
Language : English
Color range : Limited
Color primaries : BT.709
Transfer characteristics : BT.709
Matrix coefficients : BT.709
Codec configuration box : avcC

Audio
ID : 2
Format : AAC LC
Format/Info : Advanced Audio Codec Low Complexity
Codec ID : mp4a-40-2
Duration : 2 h 36 min
Bit rate mode : Constant
Bit rate : 125 kb/s
Channel(s) : 2 channels
Channel layout : L R
Sampling rate : 48.0 kHz
Frame rate : 46.875 FPS (1024 SPF)
Compression mode : Lossy
Stream size : 140 MiB (2%)
Language : English
Default : Yes
Alternate group : 1
Torrent Info:Type: Porn HD -[+18] -xXx- | Size: 6.69 GB | Hash: System protected! | Added on: 25.01.2021 14:20:47 | Views: 7 | Hits: 0
Language:English  English
Added By:TAEN
Thanks By:No one yet.
Ratings:See Votes Rate this torrent! (Log in now! to rate it)

 SIMILAR TORRENTS
Type Name Size Added S L
A.Hotwife.Is.A.Shared.Wife.2.DiSC1.XXX.DVDRip.x264-DigitalSin A.Hotwife.Is.A.Shared.Wife.2.DiSC1.XXX.DVDRip.x264...
1.43 GB 2018-06-26 04:48:17 10 3
Francesca.Le.Is.A.Hotwife.3.XXX.DVDRip.x264-ExtremlymTorrents Francesca.Le.Is.A.Hotwife.3.XXX.DVDRip.x264-Extrem...
1.98 GB 2020-08-01 10:46:24 5 0
A.Hotwife.Is.A.Shared.Wife.2.DiSC2.XXX.DVDRip.x264-DigitalSin A.Hotwife.Is.A.Shared.Wife.2.DiSC2.XXX.DVDRip.x264...
1.73 GB 2018-06-26 04:48:56 4 1
Shes a Hotwife DISC2 XXX DVDRip x264-MrsPalmer Shes a Hotwife DISC2 XXX DVDRip x264-MrsPalmer
1.46 GB 2016-10-19 12:39:28 1 88
Uploader Reputatation:   13   Say Thanks with one point of reputation:

 Recommended
7512 | 4 | 1
0 | 0 | 0
1 | 1 | 0
0 | 6 | 0
5928 | 27 | 6

 Comment's: ADD or Hide Comments

Online Since 10.09.2011 - 2021 | YouTube: Media | GitHub: Jackett | GitHub: Web Extensions PT | XTR: TVForums | YOUTUBE: XTR Media | OKRU: Media | REDTube: XXX Promo
Ora:(
  • :
  • :
)