A Young Girls Desires 7 DiSC2 XXX DVDRip x264
[ Teen , Small Tits , Skinny , Petite | Torrent in English | 1.60 GB]
Only VIPOnly VIP's can download this torrent.
(Magnet Only for VIP )
Health:
Seeds: 49
Leechers: 6
Completed: 5231 
Last Checked: 26-02-2021 00:28:49 : Click to UPDATE STATS! [This can take some time!]
0
0
0
0
0
  



Description | Information (i): Show or Hide Description

Video
ID : 1
Format : AVC
Format/Info : Advanced Video Codec
Format profile : High@L3.1
Format settings : CABAC / 5 Ref Frames
Format settings, CABAC : Yes
Format settings, Reference frames : 5 frames
Codec ID : avc1
Codec ID/Info : Advanced Video Coding
Duration : 2 h 8 min
Bit rate : 1 656 kb/s
Maximum bit rate : 5 454 kb/s
Width : 720 pixels
Height : 406 pixels
Display aspect ratio : 16:9
Frame rate mode : Constant
Frame rate : 23.976 (24000/1001) FPS
Color space : YUV
Chroma subsampling : 4:2:0
Bit depth : 8 bits
Scan type : Progressive
Bits/(Pixel*Frame) : 0.236
Stream size : 1.49 GiB (93%)
Writing library : x264 core 157 r2969 d4099dd
Encoding settings : cabac=1 / ref=5 / deblock=1:0:0 / analyse=0x3:0x113 / me=hex / subme=8 / psy=1 / psy_rd=1.00:0.00 / mixed_ref=1 / me_range=16 / chroma_me=1 / trellis=2 / 8x8dct=1 / cqm=0 / deadzone=21,11 / fast_pskip=0 / chroma_qp_offset=-2 / threads=13 / lookahead_threads=2 / sliced_threads=0 / nr=0 / decimate=1 / interlaced=0 / bluray_compat=0 / constrained_intra=0 / bframes=3 / b_pyramid=2 / b_adapt=1 / b_bias=0 / direct=3 / weightb=1 / open_gop=0 / weightp=2 / keyint=240 / keyint_min=23 / scenecut=40 / intra_refresh=0 / rc_lookahead=50 / rc=crf / mbtree=1 / crf=19.0 / qcomp=0.60 / qpmin=0 / qpmax=69 / qpstep=4 / ip_ratio=1.40 / aq=1:1.00
Encoded date : UTC 2021-01-20 08:37:50
Tagged date : UTC 2021-01-20 09:06:39
Codec configuration box : avcC

Audio
ID : 2
Format : AAC LC
Format/Info : Advanced Audio Codec Low Complexity
Codec ID : mp4a-40-2
Duration : 2 h 8 min
Source duration : 2 h 8 min
Source_Duration_LastFrame : -9 ms
Bit rate mode : Variable
Bit rate : 128 kb/s
Maximum bit rate : 152 kb/s
Channel(s) : 2 channels
Channel layout : L R
Sampling rate : 48.0 kHz
Frame rate : 46.875 FPS (1024 SPF)
Compression mode : Lossy
Stream size : 118 MiB (7%)
Source stream size : 118 MiB (7%)
Default : Yes
Alternate group : 1
Tagged date : UTC 2021-01-20 09:06:39
Torrent Info:Type: Porn HD -[+18] -xXx- | Size: 1.60 GB | Hash: System protected! | Added on: 25.01.2021 14:19:53 | Views: 9 | Hits: 0
Language:English  English
Added By:TAEN
Thanks By:No one yet.
Ratings:See Votes Rate this torrent! (Log in now! to rate it)

 SIMILAR TORRENTS
Type Name Size Added S L
ImmoralLive - Bella Young xXx 2013 ImmoralLive - Bella Young xXx 2013
3.28 GB 2013-01-13 04:13:46 1624 0
Kirko Bangz-the Progression 2 (A Young Texas Playa)-2012-DjLeak Kirko Bangz-the Progression 2 (A Young Texas Playa...
50.01 MB 2013-02-20 16:01:36 1624 18
MyFriendsHotMom - Cherie Deville - Takes A Young Cock 720p mp4 MyFriendsHotMom - Cherie Deville - Takes A Young C...
724.38 MB 2019-11-13 08:37:44 107 25
SeducedByACougar - Tyler Faith - Tyler Faith Seduces A Young Dude - Remastered SeducedByACougar - Tyler Faith - Tyler Faith Seduc...
379.37 MB 2018-11-15 05:15:47 48 10
 A Young Doctor's Notebook [LostFilm] / ??????? ????? ????? [Season 1/Episode 1-4] [2012 / HDTVRip] A Young Doctor's Notebook [LostFilm] / ?...
929.00 B 2013-01-03 00:00:00 10 5
Uploader Reputatation:   13   Say Thanks with one point of reputation:

 Recommended
1 | 5 | 0
10 | 1 | 1
0 | 0 | 0
0 | 0 | 0
2 | 4 | 0

 Comment's: ADD or Hide Comments

Online Since 10.09.2011 - 2021 | YouTube: Media | GitHub: Jackett | GitHub: Web Extensions PT | XTR: TVForums | YOUTUBE: XTR Media | OKRU: Media | REDTube: XXX Promo
Ora:(
  • :
  • :
)