Married And Available 5 DiSC2 XXX DVDRip x264
[ Milf , Big Butts , Big Tits | Torrent in English | 1.27 GB]
Only VIPOnly VIP's can download this torrent.
(Magnet Only for VIP )
Health:
Seeds: 17
Leechers: 2
Completed: 5734 
Last Checked: 28-02-2021 04:48:25 : Click to UPDATE STATS! [This can take some time!]
0
0
0
0
0
  



Description | Information (i): Show or Hide Description

Video
ID : 1
Format : AVC
Format/Info : Advanced Video Codec
Format profile : High@L3.1
Format settings : CABAC / 5 Ref Frames
Format settings, CABAC : Yes
Format settings, Reference frames : 5 frames
Codec ID : avc1
Codec ID/Info : Advanced Video Coding
Duration : 2 h 19 min
Bit rate : 1 177 kb/s
Maximum bit rate : 4 763 kb/s
Width : 720 pixels
Height : 406 pixels
Display aspect ratio : 16:9
Frame rate mode : Constant
Frame rate : 23.976 (24000/1001) FPS
Color space : YUV
Chroma subsampling : 4:2:0
Bit depth : 8 bits
Scan type : Progressive
Bits/(Pixel*Frame) : 0.168
Stream size : 1.14 GiB (90%)
Writing library : x264 core 157 r2969 d4099dd
Encoding settings : cabac=1 / ref=5 / deblock=1:0:0 / analyse=0x3:0x113 / me=hex / subme=8 / psy=1 / psy_rd=1.00:0.00 / mixed_ref=1 / me_range=16 / chroma_me=1 / trellis=2 / 8x8dct=1 / cqm=0 / deadzone=21,11 / fast_pskip=0 / chroma_qp_offset=-2 / threads=13 / lookahead_threads=2 / sliced_threads=0 / nr=0 / decimate=1 / interlaced=0 / bluray_compat=0 / constrained_intra=0 / bframes=3 / b_pyramid=2 / b_adapt=1 / b_bias=0 / direct=3 / weightb=1 / open_gop=0 / weightp=2 / keyint=240 / keyint_min=23 / scenecut=40 / intra_refresh=0 / rc_lookahead=50 / rc=crf / mbtree=1 / crf=19.0 / qcomp=0.60 / qpmin=0 / qpmax=69 / qpstep=4 / ip_ratio=1.40 / aq=1:1.00
Encoded date : UTC 2021-01-22 17:33:42
Tagged date : UTC 2021-01-23 08:43:41
Codec configuration box : avcC

Audio
ID : 2
Format : AAC LC
Format/Info : Advanced Audio Codec Low Complexity
Codec ID : mp4a-40-2
Duration : 2 h 19 min
Source duration : 2 h 19 min
Bit rate mode : Variable
Bit rate : 128 kb/s
Maximum bit rate : 144 kb/s
Channel(s) : 2 channels
Channel layout : L R
Sampling rate : 48.0 kHz
Frame rate : 46.875 FPS (1024 SPF)
Compression mode : Lossy
Stream size : 128 MiB (10%)
Source stream size : 128 MiB (10%)
Default : Yes
Alternate group : 1
Torrent Info:Type: Porn HD -[+18] -xXx- | Size: 1.27 GB | Hash: System protected! | Added on: 25.01.2021 14:17:21 | Views: 6 | Hits: 0
Language:English  English
Added By:TAEN
Thanks By:No one yet.
Ratings:See Votes Rate this torrent! (Log in now! to rate it)

 SIMILAR TORRENTS
Type Name Size Added S L
KSR-090 Cum dick! An appearance! - The height of silliness Hiso beautiful wife who lives in Nampa - Married Akasaka and Shinbashi KSR-090 Cum dick! An appearance! - The height of s...
3.19 GB 2013-01-21 01:07:51 1624 0
MCSR-086 Travel  affair married woman cum 28 MCSR-086 Travel affair married woman cum 28
3.12 GB 2013-01-21 02:47:10 1624 0
[dvdes-593] (Ogino maiden name) Day 5 Kajii married 29-year-old flight attendant firefly sky ● ● ● real miracle! Other than my husband ... [dvdes-593] (Ogino maiden name) Day 5 Kajii marrie...
1.34 GB 2013-01-25 01:34:17 1624 0
[paf-004] Ayumi Iwasa Journey Married affair exposed [paf-004] Ayumi Iwasa Journey Married affair expos...
3.01 GB 2013-01-25 07:28:31 1624 0
Young Married Available XXX DVDRip x264-WOP Young Married Available XXX DVDRip x264-WOP
1.19 GB 2017-08-23 15:46:20 449 508
Uploader Reputatation:   13   Say Thanks with one point of reputation:

 Recommended
4 | 3 | 0
28327 | 5 | 0
1 | 2 | 0
79 | 3 | 0
0 | 0 | 0

 Comment's: ADD or Hide Comments

Online Since 10.09.2011 - 2021 | YouTube: Media | GitHub: Jackett | GitHub: Web Extensions PT | XTR: TVForums | YOUTUBE: XTR Media | OKRU: Media | REDTube: XXX Promo
Ora:(
  • :
  • :
)