Pregnant Kink Dot Com 9 XXX 720p WEBRip MP4
[ Anal , Domination,Mature , Big Tits | Torrent in English | 1.97 GB]
Only VIPOnly VIP's can download this torrent.
(Magnet Only for VIP )
Health:
Seeds: 17
Leechers: 1
Completed: 1785 
Last Checked: 23-02-2021 23:56:44 : Click to UPDATE STATS! [This can take some time!]
0
0
0
0
0
  



Description | Information (i): Show or Hide Description

Video
ID : 1
Format : AVC
Format/Info : Advanced Video Codec
Format profile : Main@L3.1
Format settings : CABAC / 3 Ref Frames
Format settings, CABAC : Yes
Format settings, Reference frames : 3 frames
Codec ID : avc1
Codec ID/Info : Advanced Video Coding
Duration : 1 h 39 min
Bit rate : 2 690 kb/s
Width : 1 280 pixels
Height : 720 pixels
Display aspect ratio : 16:9
Frame rate mode : Variable
Frame rate : 30.000 FPS
Minimum frame rate : 30.000 FPS
Maximum frame rate : 90 000.000 FPS
Color space : YUV
Chroma subsampling : 4:2:0
Bit depth : 8 bits
Scan type : Progressive
Bits/(Pixel*Frame) : 0.097
Stream size : 1.87 GiB (95%)
Writing library : Zencoder Video Encoding System
Codec configuration box : avcC

Audio
ID : 2
Format : AAC LC
Format/Info : Advanced Audio Codec Low Complexity
Codec ID : mp4a-40-2
Duration : 1 h 39 min
Bit rate mode : Variable
Bit rate : 128 kb/s
Maximum bit rate : 206 kb/s
Channel(s) : 2 channels
Channel layout : L R
Sampling rate : 44.1 kHz
Frame rate : 43.066 FPS (1024 SPF)
Compression mode : Lossy
Stream size : 91.3 MiB (5%)
Default : Yes
Alternate group : 1
Torrent Info:Type: Porn HD -[+18] -xXx- | Size: 1.97 GB | Hash: System protected! | Added on: 25.01.2021 14:15:34 | Views: 15 | Hits: 1
Language:English  English
Added By:TAEN
Thanks By:No one yet.
Ratings:See Votes Rate this torrent! (Log in now! to rate it)

 SIMILAR TORRENTS
Type Name Size Added S L
TIN-001 Aizawa love fiance was pregnant Po Ji ○ others  TIN-001 Aizawa love fiance was pregnant Po Ji &...
1.47 GB 2013-01-20 06:16:57 1624 0
[H-Games][SLG] Until [H-Games][SLG] Until "My Girlfriend" is ...
533.72 MB 2020-12-22 04:00:59 496 63
SpyFam - Bailey Brooke - Pregnant? Stepfather Shoots Cum Inside Step-Daughter SpyFam - Bailey Brooke - Pregnant? Stepfather Shoo...
287.88 MB 2017-05-18 19:02:33 209 250
I Am Pregnant XXX 720p WEBRip MP4-VSEX I Am Pregnant XXX 720p WEBRip MP4-VSEX
1.91 GB 2019-01-16 15:38:55 98 13
BrattySis - Natalia Queen - You Got Me Pregnant 720p mp4 BrattySis - Natalia Queen - You Got Me Pregnant 72...
604.38 MB 2019-11-27 08:16:52 66 5
Uploader Reputatation:   13   Say Thanks with one point of reputation:

 Recommended
36 | 8 | 0
213 | 9 | 0
48 | 7 | 0
22 | 3 | 0
10220 | 12 | 0

 Comment's: ADD or Hide Comments

Online Since 10.09.2011 - 2021 | YouTube: Media | GitHub: Jackett | GitHub: Web Extensions PT | XTR: TVForums | YOUTUBE: XTR Media | OKRU: Media | REDTube: XXX Promo
Ora:(
  • :
  • :
)