My Sister Has A Tight Pussy 7 XXX iNTERNAL 720p WEBRiP MP4
[ Milf , Big Butts , Big Tits | Torrent in English | 4.52 GB]
Only VIPOnly VIP's can download this torrent.
(Magnet Only for VIP )
Health:
Seeds: 8
Leechers: 4
Completed: 842 
Last Checked: 27-02-2021 15:13:14 : Click to UPDATE STATS! [This can take some time!]
0
0
0
0
0
  



Description | Information (i): Show or Hide Description

Video
ID : 1
Format : AVC
Format/Info : Advanced Video Codec
Format profile : Main@L4.1
Format settings : CABAC / 2 Ref Frames
Format settings, CABAC : Yes
Format settings, Reference frames : 2 frames
Format settings, GOP : M=1, N=47
Codec ID : avc1
Codec ID/Info : Advanced Video Coding
Duration : 1 h 45 min
Bit rate mode : Variable
Bit rate : 5 974 kb/s
Maximum bit rate : 768 kb/s
Width : 1 280 pixels
Height : 720 pixels
Display aspect ratio : 16:9
Frame rate mode : Variable
Frame rate : 23.976 FPS
Minimum frame rate : 11.483 FPS
Maximum frame rate : 23.976 FPS
Color space : YUV
Chroma subsampling : 4:2:0
Bit depth : 8 bits
Scan type : Progressive
Bits/(Pixel*Frame) : 0.270
Stream size : 4.42 GiB (98%)
Language : English
Color range : Limited
Color primaries : BT.709
Transfer characteristics : BT.709
Matrix coefficients : BT.709
Codec configuration box : avcC

Audio
ID : 2
Format : AAC LC
Format/Info : Advanced Audio Codec Low Complexity
Codec ID : mp4a-40-2
Duration : 1 h 45 min
Bit rate mode : Constant
Bit rate : 125 kb/s
Channel(s) : 2 channels
Channel layout : L R
Sampling rate : 48.0 kHz
Frame rate : 46.875 FPS (1024 SPF)
Compression mode : Lossy
Stream size : 95.0 MiB (2%)
Language : English
Default : Yes
Alternate group : 1
Torrent Info:Type: Porn HD -[+18] -xXx- | Size: 4.52 GB | Hash: System protected! | Added on: 25.01.2021 14:09:17 | Views: 9 | Hits: 0
Language:English  English
Added By:TAEN
Thanks By:No one yet.
Ratings:See Votes Rate this torrent! (Log in now! to rate it)

 SIMILAR TORRENTS
Type Name Size Added S L
My Sisters Hot Friend - Karlie Montana My Sisters Hot Friend - Karlie Montana
1.26 GB 2013-01-09 23:54:59 1624 0
[YSN-359] Usually, I was at a loss for what I wanted terribly to reverse the switch ● my point was with the intention to drink aphrodisiac Tanmari bothering my sister that I do not treat my brother. [YSN-359] Usually, I was at a loss for what I want...
3.16 GB 2013-01-21 21:06:50 1624 0
TUSHY - Kristina Rose - Anal On My Sister's Wedding Day mp4 TUSHY - Kristina Rose - Anal On My Sister's Weddin...
325.12 MB 2017-09-24 04:56:51 1131 585
I Came Inside My Sister 2 XXX DVDRip x264-XCiTE I Came Inside My Sister 2 XXX DVDRip x264-XCiTE
1.25 GB 2015-09-11 14:40:02 107 498
WebYoung - Cassidy Klein, Melissa Moore & Lana Rhoades - Just Like My Sister mp4 WebYoung - Cassidy Klein, Melissa Moore & Lana...
300.24 MB 2017-09-24 13:37:16 99 220
Uploader Reputatation:   13   Say Thanks with one point of reputation:

 Recommended
17 | 0 | 0
1 | 2 | 0
0 | 0 | 0
1449 | 10 | 1
0 | 0 | 0

 Comment's: ADD or Hide Comments

Online Since 10.09.2011 - 2021 | YouTube: Media | GitHub: Jackett | GitHub: Web Extensions PT | XTR: TVForums | YOUTUBE: XTR Media | OKRU: Media | REDTube: XXX Promo
Ora:(
  • :
  • :
)