LegalPorno - Veronica Leal Vs 5 BBC insane interracial anal and DP with a lot of piss drinking
[ Gangbang,Creampie | Torrent in English | 1.45 GB]
Only VIPOnly VIP's can download this torrent.
(Magnet Only for VIP )
Health:
Seeds: 120
Leechers: 13
Completed: 13393 
Last Checked: 30-11-2020 12:34:21 : Click to UPDATE STATS! [This can take some time!]
0
0
0
0
0
  



Description | Information (i): Show or Hide Description

Video
ID : 2
Format : AVC
Format/Info : Advanced Video Codec
Format profile : High@L3.1
Format settings : CABAC / 4 Ref Frames
Format settings, CABAC : Yes
Format settings, Reference frames : 4 frames
Codec ID : avc1
Codec ID/Info : Advanced Video Coding
Duration : 1 h 17 min
Bit rate : 2 500 kb/s
Width : 848 pixels
Height : 480 pixels
Display aspect ratio : 16:9
Frame rate mode : Constant
Frame rate : 50.000 FPS
Color space : YUV
Chroma subsampling : 4:2:0
Bit depth : 8 bits
Scan type : Progressive
Bits/(Pixel*Frame) : 0.123
Stream size : 1.36 GiB (94%)
Writing library : x264 core 148 r2643 5c65704
Encoding settings : cabac=1 / ref=3 / deblock=1:0:0 / analyse=0x3:0x113 / me=hex / subme=7 / psy=1 / psy_rd=1.00:0.00 / mixed_ref=1 / me_range=16 / chroma_me=1 / trellis=1 / 8x8dct=1 / cqm=0 / deadzone=21,11 / fast_pskip=1 / chroma_qp_offset=-2 / threads=6 / lookahead_threads=1 / sliced_threads=0 / nr=0 / decimate=1 / interlaced=0 / bluray_compat=0 / constrained_intra=0 / bframes=3 / b_pyramid=2 / b_adapt=1 / b_bias=0 / direct=1 / weightb=1 / open_gop=0 / weightp=2 / keyint=250 / keyint_min=25 / scenecut=40 / intra_refresh=0 / rc_lookahead=40 / rc=abr / mbtree=1 / bitrate=2500 / ratetol=1.0 / qcomp=0.60 / qpmin=0 / qpmax=69 / qpstep=4 / ip_ratio=1.40 / aq=1:1.00
Codec configuration box : avcC

Audio
ID : 1
Format : AAC LC
Format/Info : Advanced Audio Codec Low Complexity
Codec ID : mp4a-40-2
Duration : 1 h 17 min
Duration_LastFrame : -1 ms
Bit rate mode : Constant
Bit rate : 138 kb/s
Channel(s) : 2 channels
Channel layout : L R
Sampling rate : 44.1 kHz
Frame rate : 43.066 FPS (1024 SPF)
Compression mode : Lossy
Stream size : 77.0 MiB (5%)
Default : Yes
Alternate group : 1
Torrent Info:Type: Porn -[+18]- xXx | Size: 1.45 GB | Hash: System protected! | Added on: 30.10.2020 07:19:35 | Views: 5 | Hits: 0
Language:English  English
Added By:TAEN
Thanks By:No one yet.
Ratings:See Votes Rate this torrent! (Log in now! to rate it)

 SIMILAR TORRENTS
Type Name Size Added S L
YoungLegalPorn.12.12.26.Kitana.A.You.Should.Study.Harder.XXX.1080p.MP4 YoungLegalPorn.12.12.26.Kitana.A.You.Should.Study....
1.05 GB 2012-12-27 22:06:24 1624 0
YoungLegalPorn.12.12.26.Kitana.A.You.Should.Study.Harder.XXX.1080p.MP4 YoungLegalPorn.12.12.26.Kitana.A.You.Should.Study....
1.05 GB 2013-02-20 19:20:46 1624 0
LegalPorno - Jessy Jey 2on1 Balls Deep Anal, DP, Pee Drink LegalPorno - Jessy Jey 2on1 Balls Deep Anal, DP, P...
1.07 GB 2020-10-28 11:39:02 1269 383
LegalPorno - Asian Beauties, May Thai and Polly Pons Balls Deep Anal Combo LegalPorno - Asian Beauties, May Thai and Polly Po...
942.75 MB 2020-10-30 07:18:53 948 437
LegalPorno - Martina Smeraldi is back with 3on1 anal fucking deep and hard LegalPorno - Martina Smeraldi is back with 3on1 an...
967.80 MB 2020-10-27 11:40:36 885 288
Uploader Reputatation:   13   Say Thanks with one point of reputation:

 Recommended
6 | 8 | 0
395 | 18 | 16
910 | 10 | 0
2426 | 30 | 1
14 | 0 | 0

 Comment's: ADD or Hide Comments

Online Since 10.09.2011 - 2020 | GitHub: Jackett | GitHub: Web Extensions PT | XTR: TVForums | YOUTUBE: XTR | OKRU: Media | REDTube: XXX Promo
Ora:(
  • :
  • :
)