Babes - Loren Minardi - Bath Bomb 08.07.2020 mp4
[ Teens with Tits | Torrent in English | 326.38 MB]
Only VIPOnly VIP's can download this torrent.
(Magnet Only for VIP )
Health:
Seeds: 105
Leechers: 7
Completed: 5299 
Last Checked: 23-07-2020 14:40:07 : Click to UPDATE STATS! [This can take some time!]
0
0
0
0
0
  



Description | Information (i): Show or Hide Description

Video
ID : 1
Format : AVC
Format/Info : Advanced Video Codec
Format profile : High@L3
Format settings, CABAC : Yes
Format settings, ReFrames : 4 frames
Codec ID : avc1
Codec ID/Info : Advanced Video Coding
Duration : 39 min 42 s
Bit rate : 1 024 kb/s
Width : 854 pixels
Height : 480 pixels
Display aspect ratio : 16:9
Original display aspect rat : 16:9
Frame rate mode : Constant
Frame rate : 23.976 (24000/1001) FPS
Color space : YUV
Chroma subsampling : 4:2:0
Bit depth : 8 bits
Scan type : Progressive
Bits/(Pixel*Frame) : 0.104
Stream size : 288 MiB (88%)
Writing library : x264 core 148 r2748 97eaef2


Audio
ID : 2
Format : AAC
Format/Info : Advanced Audio Codec
Format profile : LC
Codec ID : 40
Duration : 39 min 42 s
Bit rate mode : Constant
Bit rate : 128 kb/s
Channel(s) : 2 channels
Channel positions : Front: L R
Sampling rate : 48.0 kHz
Frame rate : 46.875 FPS (1024 spf)
Compression mode : Lossy
Stream size : 36.4 MiB (11%)
Default : Yes
Alternate group : 1
Torrent Info:Type: Porn -[+18]- xXx | Size: 326.38 MB | Hash: System protected! | Added on: 09.07.2020 11:21:00 | Views: 10 | Hits: 0
Language:English  English
Added By:TAEN
Thanks By:No one yet.
Ratings:See Votes Rate this torrent! (Log in now! to rate it)

 SIMILAR TORRENTS
Type Name Size Added S L
Babes - Vanna Bardot - Swiping Raw Dog 20.07.2020 mp4 Babes - Vanna Bardot - Swiping Raw Dog 20.07.2020 ...
307.78 MB 2020-07-21 09:19:25 480 41
Babes - Alina Lopez, Isabel Moon - Prom Night Revenge Part 3 Babes - Alina Lopez, Isabel Moon - Prom Night Reve...
498.48 MB 2020-03-11 07:14:16 480 116
Babes - Emily Willis - Fleeced Part 4 21.11.2019 mp4 Babes - Emily Willis - Fleeced Part 4 21.11.2019 m...
291.70 MB 2019-11-21 18:36:37 427 36
Babes - Abella Danger - Bella of the Ball Babes - Abella Danger - Bella of the Ball
394.64 MB 2020-06-06 05:58:08 275 25
Babes - Alecia Fox - Back Stage Booty Call mp4 Babes - Alecia Fox - Back Stage Booty Call mp4
174.90 MB 2017-08-14 16:33:33 252 130
Uploader Reputatation:   12   Say Thanks with one point of reputation:

 Recommended
246 | 19 | 1
251 | 64 | 0
1559 | 26 | 6
63 | 9 | 0
34 | 17 | 0

 Comment's: ADD or Hide Comments

Online Since 10.09.2011 - 2020 | Mirror: XTRTorrents.ws | Aptiode: Apk-TV | GitHub: Jackett | GitHub: Web Extensions PT | XTR: TVForums | YOUTUBE: XTR | OKRU: Media | REDTube: XXX Promo
Ora:(
  • :
  • :
)