BrownBunnies - Cecilia Lion - Stepsister Needed That Dick 08.07.2020 mp4
[ Ebony , Big Tits | Torrent in English | 403.53 MB]
Only VIPOnly VIP's can download this torrent.
(Magnet Only for VIP )
Health:
Seeds: 61
Leechers: 2
Completed: 5528 
Last Checked: 04-08-2020 03:57:13 : Click to UPDATE STATS! [This can take some time!]
0
0
0
0
0
  



Description | Information (i): Show or Hide Description

Video
ID : 1
Format : AVC
Format/Info : Advanced Video Codec
Format profile : High@L3.1
Format settings, CABAC : Yes
Format settings, ReFrames : 4 frames
Codec ID : avc1
Codec ID/Info : Advanced Video Coding
Duration : 48 min 47 s
Bit rate : 1 024 kb/s
Width : 854 pixels
Height : 480 pixels
Display aspect ratio : 16:9
Frame rate mode : Constant
Frame rate : 30.000 FPS
Color space : YUV
Chroma subsampling : 4:2:0
Bit depth : 8 bits
Scan type : Progressive
Bits/(Pixel*Frame) : 0.083
Stream size : 357 MiB (88%)
Writing library : x264 core 148 r2748 97eaef2


Audio
ID : 2
Format : AAC
Format/Info : Advanced Audio Codec
Format profile : LC
Codec ID : 40
Duration : 48 min 47 s
Bit rate mode : Constant
Bit rate : 129 kb/s
Channel(s) : 2 channels
Channel positions : Front: L R
Sampling rate : 32.0 kHz
Frame rate : 31.250 FPS (1024 spf)
Compression mode : Lossy
Stream size : 44.9 MiB (11%)
Default : Yes
Alternate group : 1
Torrent Info:Type: Porn -[+18]- xXx | Size: 403.53 MB | Hash: System protected! | Added on: 09.07.2020 11:15:13 | Views: 8 | Hits: 0
Language:English  English
Added By:TAEN
Thanks By:No one yet.
Ratings:See Votes Rate this torrent! (Log in now! to rate it)

 SIMILAR TORRENTS
Type Name Size Added S L
BrownBunnies - Ana Foxxx - Fucking My Horny Step-Brother BrownBunnies - Ana Foxxx - Fucking My Horny Step-B...
367.14 MB 2017-09-17 15:35:59 255 262
BrownBunnies - Jenna Foxx - Forgetting The Ex BrownBunnies - Jenna Foxx - Forgetting The Ex
284.00 MB 2017-08-27 14:15:09 252 252
BrownBunnies - Anya Ivy - Super Hot Cyber Sex BrownBunnies - Anya Ivy - Super Hot Cyber Sex
302.80 MB 2017-09-09 18:32:55 147 328
BrownBunnies - Ebony Sarah Banks Gets Fucked Deep mp4 BrownBunnies - Ebony Sarah Banks Gets Fucked Deep ...
565.52 MB 2018-05-04 14:29:48 110 6
BrownBunnies - Skyler Nicole - Juicy Phat Ass Gets Anal and Creampie BrownBunnies - Skyler Nicole - Juicy Phat Ass Gets...
375.98 MB 2018-05-28 05:28:20 65 5
Uploader Reputatation:   12   Say Thanks with one point of reputation:

 Recommended
75851 | 1426 | 180
10 | 15 | 0
74 | 12 | 0
54 | 7 | 0
0 | 0 | 0

 Comment's: ADD or Hide Comments

Online Since 10.09.2011 - 2020 | Mirror: XTRTorrents.ws | Aptiode: Apk-TV | GitHub: Jackett | GitHub: Web Extensions PT | XTR: TVForums | YOUTUBE: XTR | OKRU: Media | REDTube: XXX Promo
Ora:(
  • :
  • :
)