CumLouder.20.07.07.Noemilk.XXX.SD.MP4
[ Ebony , Big Tits | Torrent in English | 301.34 MB]
Only VIPOnly VIP's can download this torrent.
(Magnet Only for VIP )
Health:
Seeds: 0
Leechers: 0
Completed:
Last Checked: 07-08-2020 21:03:03 : Click to UPDATE STATS! [This can take some time!]
0
0
0
0
0
  



Description | Information (i): Show or Hide Description

Video
ID : 1
Format : AVC
Format/Info : Advanced Video Codec
Format profile : High@L3
Format settings : CABAC / 5 Ref Frames
Format settings, CABAC : Yes
Format settings, Reference frames : 5 frames
Codec ID : avc1
Codec ID/Info : Advanced Video Coding
Duration : 37 min 7 s
Bit rate : 1 000 kb/s
Width : 720 pixels
Height : 400 pixels
Display aspect ratio : 16:9
Frame rate mode : Constant
Frame rate : 25.000 FPS
Color space : YUV
Chroma subsampling : 4:2:0
Bit depth : 8 bits
Scan type : Progressive
Bits/(Pixel*Frame) : 0.139
Stream size : 266 MiB (88%)
Title : Censored - CumLouder.20.07.07.Noemilk.XXX.SD.MP4-KLEENEX
Writing library : x264 core 152 r2851M ba24899

Tagged date : UTC 2020-07-08 16:20:26
Codec configuration box : avcC

Audio
ID : 2
Format : AAC LC
Format/Info : Advanced Audio Codec Low Complexity
Codec ID : mp4a-40-2
Duration : 37 min 7 s
Bit rate mode : Constant
Bit rate : 128 kb/s
Channel(s) : 2 channels
Channel layout : L R
Sampling rate : 48.0 kHz
Frame rate : 46.875 FPS (1024 SPF)
Compression mode : Lossy
Stream size : 34.1 MiB (11%)
Title : Censored - CumLouder.20.07.07.Noemilk.XXX.SD.MP4-KLEENEX
Language : English
Default : Yes
Alternate group : 1
Encoded date : UTC 2020-07-08 16:20:26
Tagged date : UTC 2020-07-08 16:20:26
Torrent Info:Type: Porn -[+18]- xXx | Size: 301.34 MB | Hash: System protected! | Added on: 09.07.2020 09:42:32 | Views: 14 | Hits: 0
Language:English  English
Added By:TAEN
Thanks By:No one yet.
Ratings:See Votes Rate this torrent! (Log in now! to rate it)

 SIMILAR TORRENTS
Type Name Size Added S L
CumLouder - Kagney Linn Karter 01.08.2020 mp4 CumLouder - Kagney Linn Karter 01.08.2020 mp4
254.33 MB 2020-08-05 09:39:47 453 113
CumLouder - Amanda X 10.02.2020 mp4 CumLouder - Amanda X 10.02.2020 mp4
244.79 MB 2020-02-11 06:56:08 320 165
CumLouder - Canela Skin - Double Canela filling mp4 CumLouder - Canela Skin - Double Canela filling mp...
321.62 MB 2017-07-15 11:10:35 227 203
CumLouder - Tina Kay 30.07.2020 mp4 CumLouder - Tina Kay 30.07.2020 mp4
335.56 MB 2020-08-03 10:23:04 203 25
CumLouder - Anissa Kate 29.03.2020 mp4 CumLouder - Anissa Kate 29.03.2020 mp4
368.55 MB 2020-03-29 17:55:24 159 14
Uploader Reputatation:   12   Say Thanks with one point of reputation:

 Recommended
309 | 24 | 7
3 | 4 | 0
0 | 0 | 0
0 | 3 | 0
0 | 0 | 0

 Comment's: ADD or Hide Comments

Online Since 10.09.2011 - 2020 | Mirror: XTRTorrents.ws | Aptiode: Apk-TV | GitHub: Jackett | GitHub: Web Extensions PT | XTR: TVForums | YOUTUBE: XTR | OKRU: Media | REDTube: XXX Promo
Ora:(
  • :
  • :
)