JulesJordan - Cindy Starfall mp4
[ Double penetration | Torrent in English | 345.54 MB]
Only VIPOnly VIP's can download this torrent.
(Magnet Only for VIP )
Health:
Seeds: 33
Leechers: 4
Completed: 1809 
Last Checked: 01-08-2020 14:36:25 : Click to UPDATE STATS! [This can take some time!]
0
0
0
0
0
  



Description | Information (i): Show or Hide Description

Video
ID : 1
Format : AVC
Format/Info : Advanced Video Codec
Format profile : High@L3.1
Format settings, CABAC : Yes
Format settings, ReFrames : 4 frames
Codec ID : avc1
Codec ID/Info : Advanced Video Coding
Duration : 41 min 32 s
Bit rate : 1 024 kb/s
Width : 854 pixels
Height : 480 pixels
Display aspect ratio : 16:9
Original display aspect rat : 16:9
Frame rate mode : Constant
Frame rate : 30.000 FPS
Color space : YUV
Chroma subsampling : 4:2:0
Bit depth : 8 bits
Scan type : Progressive
Bits/(Pixel*Frame) : 0.083
Stream size : 304 MiB (88%)
Writing library : x264 core 148 r2748 97eaef2


Audio
ID : 2
Format : AAC
Format/Info : Advanced Audio Codec
Format profile : LC
Codec ID : 40
Duration : 41 min 32 s
Bit rate mode : Constant
Bit rate : 132 kb/s
Channel(s) : 2 channels
Channel positions : Front: L R
Sampling rate : 48.0 kHz
Frame rate : 46.875 FPS (1024 spf)
Compression mode : Lossy
Stream size : 38.6 MiB (11%)
Default : Yes
Alternate group : 1
Torrent Info:Type: Porn -[+18]- xXx | Size: 345.54 MB | Hash: System protected! | Added on: 09.07.2020 09:38:39 | Views: 7 | Hits: 1
Language:English  English
Added By:TAEN
Thanks By:No one yet.
Ratings:See Votes Rate this torrent! (Log in now! to rate it)

 SIMILAR TORRENTS
Type Name Size Added S L
JulesJordan - LaSirena69 - Busty Nympho LaSirena69 Opens Her Ass For Manuel JulesJordan - LaSirena69 - Busty Nympho LaSirena69...
495.20 MB 2020-07-31 05:09:18 1643 325
JulesJordan - Gina Valentina's First Anal mp4 JulesJordan - Gina Valentina's First Anal mp4
605.33 MB 2017-08-10 18:54:07 822 654
JulesJordan - Ariana Marie mp4 02 July 2017 JulesJordan - Ariana Marie mp4 02 July 2017
261.48 MB 2017-07-02 14:50:09 535 409
JulesJordan - Brandi Love 26.03.2020 mp4 JulesJordan - Brandi Love 26.03.2020 mp4
325.10 MB 2020-03-29 17:54:35 439 27
JulesJordan - Riley Reid Gangbang Part 1, Double Penetration, Double Anal! 540p mp4 JulesJordan - Riley Reid Gangbang Part 1, Double P...
687.39 MB 2017-09-09 18:57:08 425 334
Uploader Reputatation:   12   Say Thanks with one point of reputation:

 Recommended
37 | 19 | 0
301 | 9 | 0
164 | 10 | 0
9 | 10 | 0
0 | 0 | 0

 Comment's: ADD or Hide Comments

Online Since 10.09.2011 - 2020 | Mirror: XTRTorrents.ws | Aptiode: Apk-TV | GitHub: Jackett | GitHub: Web Extensions PT | XTR: TVForums | YOUTUBE: XTR | OKRU: Media | REDTube: XXX Promo
Ora:(
  • :
  • :
)