JacquieetMichelTV - Camille And Adeline 720p HD mp4
[ Double penetration | Torrent in English | 802.94 MB]
Only VIPOnly VIP's can download this torrent.
(Magnet Only for VIP )
Health:
Seeds: 37
Leechers: 6
Completed: 1375 
Last Checked: 25-07-2020 23:53:01 : Click to UPDATE STATS! [This can take some time!]
0
0
0
0
0
  



Description | Information (i): Show or Hide Description

Video
ID : 1
Format : AVC
Format/Info : Advanced Video Codec
Format profile : High@L3.1
Format settings, CABAC : Yes
Format settings, ReFrames : 4 frames
Codec ID : avc1
Codec ID/Info : Advanced Video Coding
Duration : 42 min 39 s
Bit rate : 2 500 kb/s
Width : 1 280 pixels
Height : 720 pixels
Display aspect ratio : 16:9
Frame rate mode : Variable
Frame rate : 23.976 (24000/1001) FPS
Minimum frame rate : 23.974 FPS
Maximum frame rate : 23.981 FPS
Color space : YUV
Chroma subsampling : 4:2:0
Bit depth : 8 bits
Scan type : Progressive
Bits/(Pixel*Frame) : 0.113
Stream size : 762 MiB (95%)
Writing library : x264 core 157 r2935 545de2f

Color range : Limited
Color primaries : BT.709
Transfer characteristics : BT.709
Matrix coefficients : BT.709

Audio
ID : 2
Format : AAC
Format/Info : Advanced Audio Codec
Format profile : LC
Codec ID : 40
Duration : 42 min 39 s
Bit rate mode : Constant
Bit rate : 128 kb/s
Channel(s) : 2 channels
Channel positions : Front: L R
Sampling rate : 48.0 kHz
Frame rate : 46.875 FPS (1024 spf)
Compression mode : Lossy
Stream size : 39.2 MiB (5%)
Title : Stereo
Language : French
Default : Yes
Alternate group : 1
Torrent Info:Type: Porn -[+18]- xXx | Size: 802.94 MB | Hash: System protected! | Added on: 09.07.2020 07:57:47 | Views: 4 | Hits: 1
Language:English  English
Added By:TAEN
Thanks By:No one yet.
Ratings:See Votes Rate this torrent! (Log in now! to rate it)

 SIMILAR TORRENTS
Type Name Size Added S L
JacquieEtMichelTV - Julia - 22 Years Old FRENCH 16.07.2020 mp4 JacquieEtMichelTV - Julia - 22 Years Old FRENCH 16...
432.62 MB 2020-07-17 08:55:20 613 204
JacquieEtMichelTV - Betty - 46 Years Old FRENCH 30.07.2020 mp4 JacquieEtMichelTV - Betty - 46 Years Old FRENCH 30...
468.89 MB 2020-07-31 14:05:16 598 101
JacquieEtMichelTV - Tiffany se devoile ! mp4 JacquieEtMichelTV - Tiffany se devoile ! mp4
313.86 MB 2017-09-21 18:24:38 389 223
JacquieEtMichelTV - Missy - Head Full Of Projects JacquieEtMichelTV - Missy - Head Full Of Projects
221.86 MB 2020-07-31 05:29:47 325 22
JacquieEtMichelTV - Melissa, Tiffany - Orgiaque mp4 JacquieEtMichelTV - Melissa, Tiffany - Orgiaque mp...
427.10 MB 2017-09-20 09:14:47 296 141
Uploader Reputatation:   12   Say Thanks with one point of reputation:

 Recommended
0 | 3 | 0
0 | 2 | 0
0 | 0 | 0
26 | 4 | 0
1167 | 18 | 4

 Comment's: ADD or Hide Comments

Online Since 10.09.2011 - 2020 | Mirror: XTRTorrents.ws | Aptiode: Apk-TV | GitHub: Jackett | GitHub: Web Extensions PT | XTR: TVForums | YOUTUBE: XTR | OKRU: Media | REDTube: XXX Promo
Ora:(
  • :
  • :
)