MyLifeInMiami - Vina Sky - Beach Fuck 720p HD mp4
[ All Sex | Torrent in English | 373.23 MB]
Only VIPOnly VIP's can download this torrent.
(Magnet Only for VIP )
Health:
Seeds: 58
Leechers: 3
Completed: 4722 
Last Checked: 05-07-2020 00:09:33 : Click to UPDATE STATS! [This can take some time!]
0
0
0
0
0
  



Description | Information (i): Show or Hide Description

Video
ID : 1
Format : AVC
Format/Info : Advanced Video Codec
Format profile : High@L3.1
Format settings, CABAC : Yes
Format settings, ReFrames : 4 frames
Codec ID : avc1
Codec ID/Info : Advanced Video Coding
Duration : 20 min 0 s
Bit rate : 2 500 kb/s
Width : 1 280 pixels
Height : 720 pixels
Display aspect ratio : 16:9
Frame rate mode : Variable
Frame rate : 23.976 (24000/1001) FPS
Minimum frame rate : 23.974 FPS
Maximum frame rate : 23.981 FPS
Color space : YUV
Chroma subsampling : 4:2:0
Bit depth : 8 bits
Scan type : Progressive
Bits/(Pixel*Frame) : 0.113
Stream size : 354 MiB (95%)
Writing library : x264 core 157 r2935 545de2f

Audio
ID : 2
Format : AAC
Format/Info : Advanced Audio Codec
Format profile : LC
Codec ID : 40
Duration : 20 min 0 s
Bit rate mode : Constant
Bit rate : 129 kb/s
Channel(s) : 2 channels
Channel positions : Front: L R
Sampling rate : 44.1 kHz
Frame rate : 43.066 FPS (1024 spf)
Compression mode : Lossy
Stream size : 18.4 MiB (5%)
Title : Stereo
Default : Yes
Alternate group : 1
Torrent Info:Type: Porn -[+18]- xXx | Size: 373.23 MB | Hash: System protected! | Added on: 03.06.2020 08:22:33 | Views: 4 | Hits: 0
Language:English  English
Added By:TAEN
Thanks By:No one yet.
Ratings:See Votes Rate this torrent! (Log in now! to rate it)

 SIMILAR TORRENTS
Type Name Size Added S L
MyLifeInMiami - Kali Roses And Natalia Nix - Two Hot Chicks Sharing Cock mp4 MyLifeInMiami - Kali Roses And Natalia Nix - Two H...
188.82 MB 2020-04-01 11:18:06 79 12
MyLifeInMiami - Roxy Ryder - My Best Friends Girl Is Such A Slut 720p HD mp4 MyLifeInMiami - Roxy Ryder - My Best Friends Girl ...
397.77 MB 2020-06-29 08:00:27 73 25
MyLifeInMiami - Mj Fresh Got The Goods 720p HD mp4 MyLifeInMiami - Mj Fresh Got The Goods 720p HD mp4
414.57 MB 2020-05-19 10:37:45 37 6
MyLifeInMiami - Mackenzie Mace - Slim Teen Takes Big Dick And Loves It 720p HD mp4 MyLifeInMiami - Mackenzie Mace - Slim Teen Takes B...
382.65 MB 2020-02-12 11:15:32 22 7
MyLifeInMiami - Violet Myers - Got Curves For Days mp4 MyLifeInMiami - Violet Myers - Got Curves For Days...
174.17 MB 2020-03-25 09:02:15 12 0
Uploader Reputatation:   12   Say Thanks with one point of reputation:

 Recommended
239 | 9 | 14
64 | 10 | 0
25339 | 18 | 0
1666 | 7 | 5
0 | 6 | 9

 Comment's: ADD or Hide Comments

Online Since 10.09.2011 - 2020 | Mirror: XTRTorrents.ws | Aptiode: Apk-TV | GitHub: Jackett | GitHub: Web Extensions PT | XTR: TVForums | YOUTUBE: XTR | OKRU: Media | REDTube: XXX Promo
Ora:(
  • :
  • :
)