Victor Wainwright - Victor Wainwright and the Train (2018) [Hi-Res stereo]
[ | Torrent in English | 1.28 GB]
Download this torrent
(Magnet Only for VIP )
Health:
Seeds: 11
Leechers: 0
Completed:
Top Torrent: Recommended
Last Checked: 01-07-2020 03:04:00 : Click to UPDATE STATS! [This can take some time!]
0
0
0
0
0
  



Description | Information (i): Show or Hide Description



Quality-Lossless
Release-1918
Duration-01:01:40
File Size-549 MB
Genre-Blues
Cover Size-1500px

----------------------------------------------------------------------------------------------
Analyzed: Victor Wainwright and the Train /  Artist: Victor Wainwright
----------------------------------------------------------------------------------------------
DR Peak RMS Duration Title [codec]
----------------------------------------------------------------------------------------------
DR6 -0.15 dB -8.86 dB 5:00 01 - Healing [flac]
DR8 -0.40 dB -10.25 dB 4:29 02 - Wiltshire Grave [flac]
DR7 -0.29 dB -8.35 dB 3:35 03 - Train [flac]
DR7 -0.33 dB -11.15 dB 5:34 04 - Dull Your Shine [flac]
DR8 -0.48 dB -9.34 dB 4:20 05 - Money [flac]
DR7 -0.42 dB -9.80 dB 5:11 06 - Thank You Lucille [flac]
DR6 -0.32 dB -8.28 dB 3:33 07 - Boogie Depression [flac]
DR8 -0.46 dB -11.90 dB 5:08 08 - Everything I Need [flac]
DR6 -0.48 dB -9.42 dB 4:45 09 - Righteous [flac]
DR7 -0.36 dB -9.20 dB 4:20 10 - I'll Start Tomorrow [flac]
DR8 -0.30 dB -11.98 dB 7:01 11 - Sunshine [flac]
DR8 -0.42 dB -11.14 dB 8:36 12 - That's Love to Me [flac]
----------------------------------------------------------------------------------------------
Number of files:    12
Official DR value:  DR7

Sampling rate: 96000 Hz
Average bitrate: 2977kbs
Bits per sample: 24 bit
Torrent Info:Type: Music Mp3 | FLAC | Size: 1.28 GB | Hash: System protected! | Added on: 03.05.2020 14:45:40 | Views: 12 | Hits: 0
Language:English  English
Added By:was95
Thanks By:No one yet.
Ratings:See Votes Rate this torrent! (Log in now! to rate it)

 SIMILAR TORRENTS
Type Name Size Added S L
Victor Wooten - bass [1996-2005 / MP3 / 192] [Jazz+Funk] Victor Wooten - bass [1996-2005 / MP3 / 192] [Jazz...
750.00 B 2009-09-08 00:00:00 10 5
Victor Wooten - Discography [1996-2008 / MP3 / 320] [Jazz] Victor Wooten - Discography [1996-2008 / MP3 / 320...
1,022.00 B 2010-02-14 00:00:00 10 5
Greg Howe, Victor Wooten & Dennis Chambers - Extraction [2003 / MP3 / 320] [Fusion] Greg Howe, Victor Wooten & Dennis Chambers...
115.00 B 2011-03-27 00:00:00 10 5
Uploader Reputatation:   0   Say Thanks with one point of reputation:

 Recommended
3 | 8 | 0
8 | 0 | 0
21812 | 3 | 0
760 | 15 | 0
513 | 9 | 5

 Comment's: ADD or Hide Comments

Online Since 10.09.2011 - 2020 | Mirror: XTRTorrents.ws | Aptiode: Apk-TV | GitHub: Jackett | GitHub: Web Extensions PT | XTR: TVForums | YOUTUBE: XTR | OKRU: Media | REDTube: XXX Promo
Ora:(
  • :
  • :
)