Steve Strauss - A Very Thin Wire (2020) Flac
[ | Torrent in English | 307.86 MB]
Download this torrent
(Magnet Only for VIP )
Health:
Seeds: 8
Leechers: 0
Completed: 348 
Top Torrent: Recommended
Last Checked: 01-07-2020 03:03:06 : Click to UPDATE STATS! [This can take some time!]
0
0
0
0
0
  



Description | Information (i): Show or Hide Description



Quality-Lossless
Release-2020
Duration-00:4:30
File Size-322 MB
Genre-Folk
Cover Size-1200px

----------------------------------------------------------------------------------------------
Analyzed: A Very Thin Wire /  Artist: Steve Strauss
----------------------------------------------------------------------------------------------
DR Peak RMS Duration Title [codec]
----------------------------------------------------------------------------------------------
DR8 -0.55 dB -10.35 dB 3:08 01 - Somebody Tell Me [flac]
DR7 -0.49 dB -9.33 dB 3:39 02 - Blue [flac]
DR7 -0.51 dB -9.78 dB 3:10 03 - A Very Thin Wire [flac]
DR7 -0.46 dB -9.32 dB 3:10 04 - Every Broken Glass [flac]
DR8 -0.50 dB -10.28 dB 4:23 05 - Here Comes Old Splitfoot [flac]
DR6 -0.66 dB -9.37 dB 3:25 06 - Please Be With Me [flac]
DR7 -0.50 dB -9.86 dB 4:04 07 - Like It Used to Be [flac]
DR7 -0.61 dB -9.95 dB 3:58 08 - Bathseba [flac]
DR8 -0.86 dB -10.32 dB 3:49 09 - (Looking for) The Heart of Saturday Night [flac]
DR6 -0.28 dB -9.11 dB 4:00 10 - In the Flood [flac]
DR8 -0.50 dB -10.40 dB 5:15 11 - Home [flac]
DR7 -0.66 dB -9.85 dB 4:23 12 - Sisyphus Jones [flac]
DR8 -0.77 dB -11.43 dB 3:58 13 - The Company You Keep [flac]
----------------------------------------------------------------------------------------------
Number of files:    13
Official DR value:  DR7

Sampling rate: 44100 Hz
Average bitrate: 849kbs
Bits per sample: 16 bit
Torrent Info:Type: Music Mp3 | FLAC | Size: 307.86 MB | Hash: System protected! | Added on: 03.05.2020 14:37:22 | Views: 19 | Hits: 1
Language:English  English
Added By:was95
Thanks By:No one yet.
Ratings:See Votes Rate this torrent! (Log in now! to rate it)

 SIMILAR TORRENTS
No Similar Torrent Found
Uploader Reputatation:   0   Say Thanks with one point of reputation:

 Recommended
0 | 5 | 0
209 | 6 | 0
621 | 13 | 9
591 | 6 | 13
38 | 2 | 0

 Comment's: ADD or Hide Comments

Online Since 10.09.2011 - 2020 | Mirror: XTRTorrents.ws | Aptiode: Apk-TV | GitHub: Jackett | GitHub: Web Extensions PT | XTR: TVForums | YOUTUBE: XTR | OKRU: Media | REDTube: XXX Promo
Ora:(
  • :
  • :
)