Tops - I Feel Alive (2020) Flac
[ | Torrent in English | 226.36 MB]
Download this torrent
(Magnet Only for VIP )
Health:
Seeds: 0
Leechers: 7
Completed:
Top Torrent: Recommended
Last Checked: 01-07-2020 01:56:11 : Click to UPDATE STATS! [This can take some time!]
0
0
0
0
0
  



Description | Information (i): Show or Hide Description



Quality-Lossless
Release-2020
Duration-00:35:13
File Size-237 MB
Genre-Alternative
Cover Size-1200px

----------------------------------------------------------------------------------------------
Analyzed: I Feel Alive /  Artist: Tops
----------------------------------------------------------------------------------------------
DR Peak RMS Duration Title [codec]
----------------------------------------------------------------------------------------------
DR5 -0.04 dB -7.07 dB 3:27 01 - Direct Sunlight [flac]
DR5 -0.08 dB -7.63 dB 2:33 02 - I Feel Alive [flac]
DR6 -0.10 dB -7.58 dB 3:06 03 - Pirouette [flac]
DR7 -0.06 dB -9.14 dB 3:28 04 - Ballads & Sad Movies [flac]
DR6 -0.00 dB -7.58 dB 3:04 05 - Colder & Closer [flac]
DR6 -0.06 dB -6.84 dB 3:12 06 - Witching Hour [flac]
DR5 -0.11 dB -7.61 dB 2:43 07 - Take Down [flac]
DR5 -0.12 dB -7.09 dB 2:58 08 - Drowning In Paradise [flac]
DR6 -0.08 dB -7.33 dB 3:29 09 - OK Fine Whatever [flac]
DR4 -0.02 dB -7.16 dB 2:49 10 - Looking To Remember [flac]
DR5 -0.11 dB -7.48 dB 4:20 11 - Too Much [flac]
----------------------------------------------------------------------------------------------
Number of files:    11
Official DR value:  DR5

Sampling rate: 44100 Hz
Average bitrate: 894kbs
Bits per sample: 16 bit
Torrent Info:Type: Music Mp3 | FLAC | Size: 226.36 MB | Hash: System protected! | Added on: 26.04.2020 14:01:07 | Views: 9 | Hits: 1
Language:English  English
Added By:was95
Thanks By:No one yet.
Ratings:See Votes Rate this torrent! (Log in now! to rate it)

 SIMILAR TORRENTS
No Similar Torrent Found
Uploader Reputatation:   0   Say Thanks with one point of reputation:

 Recommended
5 | 10 | 0
3775 | 139 | 4
139 | 5 | 16
113 | 7 | 0
2684 | 21 | 2

 Comment's: ADD or Hide Comments

Online Since 10.09.2011 - 2020 | Mirror: XTRTorrents.ws | Aptiode: Apk-TV | GitHub: Jackett | GitHub: Web Extensions PT | XTR: TVForums | YOUTUBE: XTR | OKRU: Media | REDTube: XXX Promo
Ora:(
  • :
  • :
)