Thievery Corporation - Symphonik (2020) [24bit Hi-Res]
[ | Torrent in English | 621.16 MB]
Download this torrent
(Magnet Only for VIP )
Health:
Seeds: 29
Leechers: 2
Completed: 1800 
Last Checked: 01-06-2020 22:15:46 : Click to UPDATE STATS! [This can take some time!]
0
0
0
0
0
  



Description | Information (i): Show or Hide Description



Quality-Lossless
Release-2020
Duration-00:48:55
File Size-8651 MB
Genre-Electronic
Cover Size-1000px

----------------------------------------------------------------------------------------------
Analyzed: Symphonik /  Artist: Thievery Corporation
----------------------------------------------------------------------------------------------
DR Peak RMS Duration Title [codec]
----------------------------------------------------------------------------------------------
DR7 -0.74 dB -11.77 dB 3:46 01 - Heaven's Gonna Burn Your Eyes (Symphonik Version) [flac]
DR8 -0.74 dB -11.24 dB 4:51 02 - Love Has No Heart (Symphonik Version) [flac]
DR6 -0.63 dB -9.22 dB 3:58 03 - Ghetto Matrix (Symphonik Version) [flac]
DR8 -0.70 dB -11.07 dB 2:43 04 - Passing Stars (Symphonik Version) [flac]
DR8 -0.76 dB -11.42 dB 4:04 05 - Until The Morning (Symphonik Version) [flac]
DR6 -0.68 dB -10.94 dB 5:26 06 - Depth of My Soul (Symphonik Version) [flac]
DR9 -0.77 dB -13.89 dB 5:05 07 - Sweet Tides (Symphonik Version) [flac]
DR8 -0.62 dB -10.47 dB 5:16 08 - Lebanese Blonde (Symphonik Version) [flac]
DR7 -0.49 dB -10.17 dB 5:08 09 - Weapons of Distraction (Symphonik Version) [flac]
DR8 -0.66 dB -12.43 dB 4:25 10 - The Forgotten People (Symphonik Version) [flac]
DR6 -0.73 dB -10.32 dB 4:05 11 - Marching The Hate Machines (Symphonik Version) [flac]
----------------------------------------------------------------------------------------------
Number of files:    11
Official DR value:  DR7

Sampling rate: 44100 Hz
Average bitrate: 1772kbs
Bits per sample: 24 bit
Torrent Info:Type: Music Mp3 | FLAC | Size: 621.16 MB | Hash: System protected! | Added on: 07.04.2020 18:48:10 | Views: 4 | Hits: 0
Language:English  English
Added By:was95
Thanks By:No one yet.
Ratings:See Votes Rate this torrent! (Log in now! to rate it)

 SIMILAR TORRENTS
Type Name Size Added S L
VA-DJ Kicks Mixed By Thievery Corporation-(K7076CD)-CD-FLAC-1999-dL VA-DJ Kicks Mixed By Thievery Corporation-(K7076CD...
402.68 MB 2013-02-20 15:49:13 1624 0
Various Artists - Perfect Remixes (by Thievery Corporation) [2008 / MP3 / 256 (VBR)] [Downtempo] Various Artists - Perfect Remixes (by Thievery Cor...
115.00 B 2008-06-19 00:00:00 10 5
Thievery Corporation - Radio Retaliation [2008 / MP3 / 320] [Electronic] Thievery Corporation - Radio Retaliation [2008 / M...
128.00 B 2008-10-01 00:00:00 10 5
Thievery Corporation -  Culture of Fear [2011 / MP3 / 192 (VBR)] [Hip-Hop] Thievery Corporation - Culture of Fear [2011 / MP...
114.00 B 2011-07-04 00:00:00 10 5
Uploader Reputatation:   0   Say Thanks with one point of reputation:

 Recommended
1940 | 13 | 5
29 | 2 | 0
0 | 3 | 0
10 | 6 | 0
589 | 8 | 0

 Comment's: ADD or Hide Comments

Online Since 10.09.2011 - 2020 | Mirror: XTRTorrents.ws | Aptiode: Apk-TV | GitHub: Jackett | GitHub: Web Extensions PT | XTR: TVForums | YOUTUBE: XTR | OKRU: Media | REDTube: XXX Promo
Ora:(
  • :
  • :
)