Mystery Jets - A Billion Heartbeats (2019) [24bit Hi-Res]
[ | Torrent in English | 575.21 MB]
Download this torrent
(Magnet Only for VIP )
Health:
Seeds: 13
Leechers: 0
Completed: 703 
Last Checked: 01-06-2020 22:13:57 : Click to UPDATE STATS! [This can take some time!]
0
0
0
0
0
  



Description | Information (i): Show or Hide Description



Quality-Lossless
Release-2019
Duration-00:48:07
File Size-603 MB
Genre-Alternative
Cover Size-1280px

----------------------------------------------------------------------------------------------
Analyzed: A Billion Heartbeats /  Artist: Mystery Jets
----------------------------------------------------------------------------------------------
DR Peak RMS Duration Title [codec]
----------------------------------------------------------------------------------------------
DR6 -0.00 dB -8.80 dB 5:21 01 - Screwdriver [flac]
DR5 -0.00 dB -7.24 dB 4:45 02 - Petty Drone [flac]
DR7 -0.00 dB -9.22 dB 3:54 03 - History Has Its Eyes On You [flac]
DR5 -0.00 dB -7.73 dB 4:56 04 - A Billion Heartbeats [flac]
DR6 -0.00 dB -10.66 dB 3:56 05 - Endless City [flac]
DR5 -0.00 dB -7.18 dB 6:03 06 - Hospital Radio [flac]
DR5 -0.00 dB -7.76 dB 5:11 07 - Cenotaph [flac]
DR7 -0.00 dB -9.31 dB 4:26 08 - Campfire Song [flac]
DR6 -0.00 dB -8.81 dB 4:58 09 - Watching Yourself Slowly Disappear [flac]
DR6 -0.00 dB -12.18 dB 4:34 10 - Wrong Side Of The Tracks [flac]
----------------------------------------------------------------------------------------------
Number of files:    10
Official DR value:  DR6

Sampling rate: 44100 Hz
Average bitrate: 1665kbs
Bits per sample: 24 bit
Torrent Info:Type: Music Mp3 | FLAC | Size: 575.21 MB | Hash: System protected! | Added on: 07.04.2020 16:34:26 | Views: 5 | Hits: 0
Language:English  English
Added By:was95
Thanks By:No one yet.
Ratings:See Votes Rate this torrent! (Log in now! to rate it)

 SIMILAR TORRENTS
Type Name Size Added S L
Mystery.Men.1999.iNT.DVDRip.XViD-Trojan Mystery.Men.1999.iNT.DVDRip.XViD-Trojan
1.37 GB 2013-01-14 23:58:45 1624 0
Mystery.Men.1999.iNT.DVDRip.XViD-Trojan[rbg] Mystery.Men.1999.iNT.DVDRip.XViD-Trojan[rbg]
1.37 GB 2013-02-20 19:29:45 1624 0
Pokemon.Lucario.and.the.Mystery.of.Mew.2006.DVDRip.x264-QCF Pokemon.Lucario.and.the.Mystery.of.Mew.2006.DVDRip...
1,001.37 MB 2013-11-05 07:15:44 1624 0
BrazzersExxtra - Romi Rain - Mystery Tape A XXX Parody mp4s BrazzersExxtra - Romi Rain - Mystery Tape A XXX Pa...
308.89 MB 2017-08-31 17:00:31 772 560
Mystery Road Season 1 Complete 720p WEB-DL x264 [i c] Mystery Road Season 1 Complete 720p WEB-DL x264 [i...
4.01 GB 2020-05-09 23:31:48 152 36
Uploader Reputatation:   0   Say Thanks with one point of reputation:

 Recommended
72 | 0 | 28
9 | 0 | 0
1371 | 30 | 44
425 | 10 | 0
5363 | 426 | 39

 Comment's: ADD or Hide Comments

Online Since 10.09.2011 - 2020 | Mirror: XTRTorrents.ws | Aptiode: Apk-TV | GitHub: Jackett | GitHub: Web Extensions PT | XTR: TVForums | YOUTUBE: XTR | OKRU: Media | REDTube: XXX Promo
Ora:(
  • :
  • :
)