Galantis - Church (2020) [24bit Hi-Res]
[ | Torrent in English | 524.33 MB]

Download this torrent
(Magnet Only for VIP )
Health:
Seeds: 17
Leechers: 5
Completed: 274 
Click to UPDATE STATS! [This can take some time!]
0
0
0
0
0
  



Description | Information (i): Show or Hide Description



Quality-Lossless
Release-2020
Duration-00:42:01
File Size-549 MB
Genre-Dance
Cover Size-1280px

----------------------------------------------------------------------------------------------
Analyzed: Church /  Artist: Galantis
----------------------------------------------------------------------------------------------
DR Peak RMS Duration Title [codec]
----------------------------------------------------------------------------------------------
DR4 -0.00 dB -6.64 dB 4:23 01 - Steel [flac]
DR5 -0.00 dB -7.42 dB 3:06 02 - Faith (feat. Mr. Probz) [flac]
DR5 -0.00 dB -6.67 dB 2:56 03 - Unless It Hurts [flac]
DR4 -0.00 dB -6.97 dB 3:35 04 - Never Felt A Love Like This (feat. Dotan) [flac]
DR4 -0.00 dB -7.01 dB 2:56 05 - Holy Water [flac]
DR5 -0.00 dB -7.39 dB 3:20 06 - Hurricane [flac]
DR6 -0.00 dB -8.02 dB 3:31 07 - Stella [flac]
DR5 -0.00 dB -8.03 dB 3:12 08 - Bonfire [flac]
DR5 -0.00 dB -6.92 dB 3:43 10 - Fuck Tomorrow Now [flac]
DR5 -0.00 dB -7.39 dB 2:37 11 - Miracle [flac]
DR5 -0.00 dB -8.18 dB 2:35 12 - Feel Something (feat. flyckt) [flac]
DR5 -0.00 dB -7.16 dB 2:37 13 - We Can Get High [flac]
DR4 -0.00 dB -7.74 dB 3:25 14 - Bones (feat. OneRepublic) [flac]
----------------------------------------------------------------------------------------------
Number of files:    13
Official DR value:  DR5

Sampling rate: 44100 Hz
Average bitrate: 1739kbs
Bits per sample: 24 bit
Torrent Info:Type: Music Mp3 | FLAC | Size: 524.33 MB | Hash: System protected! | Added on: 14.02.2020 20:20:00 | Views: 2 | Hits: 1
Language:English  English
Added By:was95
Thanks By:No one yet.
Ratings:See Votes Rate this torrent! (Log in now! to rate it)

 SIMILAR TORRENTS
No Similar Torrent Found

 Recommended
26 | 10 | 0
0 | 4 | 0
0 | 6 | 0
16 | 8 | 0
1110 | 10 | 51

 
Comments's: ADD or Hide Comments


Online Since 10.09.2011 - 2020 | Mirror: XTRTorrents.ws | XTR: TVForums | YOUTUBE: XTR
Ora:(
  • :
  • :
)