WAR (2019) Hindi 720p WEB-DL. x264 UNTOUCHE.AAC DD-5.1.ESub Shadow(HDwebmovies)
[ Thriller || Drama || Action | Torrent in Hindi | 1.96 GB]
Download this torrent
(Magnet Only for VIP )
Health:
Seeds: 0
Leechers: 0
Completed:
Top Torrent: Recommended
Last Checked: 24-10-2020 22:13:06 : Click to UPDATE STATS! [This can take some time!]
0
0
0
0
0
  



Description | Information (i): Show or Hide Description


Visit Our Site https://hdwebmovies.xyz



WAR (2019) Hindi 720p WEB-DL. x264 UNTOUCHE.AAC DD-5.1.ESub Shadow(HDwebmovies)



Special Thanks To HDwebmovies







Movie Info


Name - War (2019)

Storyline - An Indian soldier is assigned a mission to eliminate his former mentor, who has gone rogue

IMDB : https://www.imdb.com/title/tt7430722/

Directors:  Siddharth Anand

Stars :   Hrithik Roshan, Vaani Kapoor, Tiger Shroff

Release date :   2 October 2019 (UK)

File size : 1.8 GB

Encoded by Team Shàdów


Credit goes to  - Team Shàdów (HDwebmovies)





General
Unique ID                                : 189588631094038239224521328023980298035 (0x8EA171324FB08A44978EB1CF85AD4F33)
Complete name                            : WAR (2019) Hindi 720p WEB-DL. x264 UNTOUCHE.AAC DD-5.1.ESub Shadow(HDwebmovies).mkv
Format                                   : Matroska
Format version                           : Version 4
File size                                : 1.96 GiB
Duration                                 : 2 h 31 min
Overall bit rate                         : 1 846 kb/s
Movie name                               : WAR (2019) Hindi 720p WEB-DL. UNTOUCHE.AAC DD-5.1 1.8GB - ESub SHadow(HDwebmovies)
Encoded date                             : UTC 2019-11-27 19:56:39
Writing application                      : mkvmerge v8.2.0 ('World of Adventure') 32bit
Writing library                          : libebml v1.3.1 + libmatroska v1.4.2

Video
ID                                       : 1
Format                                   : AVC
Format/Info                              : Advanced Video Codec
Format profile                           : High@L3.1
Format settings                          : CABAC / 5 Ref Frames
Format settings, CABAC                   : Yes
Format settings, Reference frames        : 5 frames
Codec ID                                 : V_MPEG4/ISO/AVC
Duration                                 : 2 h 31 min
Bit rate                                 : 1 652 kb/s
Width                                    : 1 280 pixels
Height                                   : 544 pixels
Display aspect ratio                     : 2.35:1
Original display aspect ratio            : 2.35:1
Frame rate mode                          : Constant
Frame rate                               : 24.000 FPS
Color space                              : YUV
Chroma subsampling                       : 4:2:0
Bit depth                                : 8 bits
Scan type                                : Progressive
Bits/(Pixel*Frame)                       : 0.099
Stream size                              : 1.75 GiB (90%)
Title                                    : Shadow(hdwebmovies)
Language                                 : Hindi
Default                                  : Yes
Forced                                   : No
Color range                              : Limited
Color primaries                          : BT.709
Transfer characteristics                 : BT.709
Matrix coefficients                      : BT.709

Audio
ID                                       : 2
Format                                   : E-AC-3
Format/Info                              : Enhanced AC-3
Commercial name                          : Dolby Digital Plus
Codec ID                                 : A_EAC3
Duration                                 : 2 h 31 min
Bit rate mode                            : Constant
Bit rate                                 : 192 kb/s
Channel(s)                               : 6 channels
Channel layout                           : L R C LFE Ls Rs
Sampling rate                            : 48.0 kHz
Frame rate                               : 31.250 FPS (1536 SPF)
Compression mode                         : Lossy
Stream size                              : 209 MiB (10%)
Title                                    : Shadow(hdwebmovies)
Language                                 : Hindi
Service kind                             : Complete Main
Default                                  : Yes
Forced                                   : No

Text
ID                                       : 3
Format                                   : UTF-8
Codec ID                                 : S_TEXT/UTF8
Codec ID/Info                            : UTF-8 Plain Text
Duration                                 : 2 h 26 min
Bit rate                                 : 33 b/s
Count of elements                        : 1266
Stream size                              : 35.6 KiB (0%)
Title                                    : Shadow(hdwebmovies)
Language                                 : English
Default                                  : Yes
Forced                                   : No












Torrent Info:Type: 720p HD | Size: 1.96 GB | Hash: System protected! | Added on: 27.11.2019 20:28:03 | Views: 51 | Hits: 10
Language:Hindi  Hindi
Added By:trueHD
Thanks By:No one yet.
Ratings:See Votes Rate this torrent! (Log in now! to rate it)

 SIMILAR TORRENTS
Type Name Size Added S L
The Flowers of War (2011) [Christian Bale] 1080p H264 DolbyD 5.1 💎 nickarad The Flowers of War (2011) [Christian Bale] 1080p H...
2.66 GB 2020-11-19 16:49:11 47 33
Drake - War (2019) {Single} Mp3 320kbps [PMEDIA] ⭐️.mp3 Drake - War (2019) {Single} Mp3 320kbps [PMEDIA] ...
7.08 MB 2019-12-25 09:47:50 38 0
WAR (2019) BluRay 1080p  (DD5.1) Telugu+Tamil+Hindi 2.6GB  ESub[MB] WAR (2019) BluRay 1080p (DD5.1) Telugu+Tamil+Hind...
2.56 GB 2020-04-05 12:35:52 29 6
Captain America Civil War (2016) 3D HSBS 1080p H264 DolbyD 5.1 👓 nickarad Captain America Civil War (2016) 3D HSBS 1080p H26...
2.78 GB 2020-03-22 10:45:04 10 1
Avengers Infinity War (2018) 720p BRRip Telugu+Tamil+Hindi+Eng x264 1.5GB ESub[MB] Avengers Infinity War (2018) 720p BRRip Telugu+Tam...
1.57 GB 2020-04-27 07:38:42 6 14
Uploader Reputatation:   0   Say Thanks with one point of reputation:

 Recommended
497 | 22 | 0
3 | 0 | 0
3 | 5 | 0
100 | 1 | 2
14 | 10 | 0

 Comment's: ADD or Hide Comments

Online Since 10.09.2011 - 2020 | GitHub: Jackett | GitHub: Web Extensions PT | XTR: TVForums | YOUTUBE: XTR | OKRU: Media | REDTube: XXX Promo
Ora:(
  • :
  • :
)