ExtremlymTorrents 🔥 V4.2 : Download Free 🎁 "Eric.Clapton.Life.in.12.Bars.2018.iTA.DOCU.BDRiP.H264-Sub.iTA.iCV-MIRCrew" (Descarca Gratuit)
 
Eric.Clapton.Life.in.12.Bars.2018.iTA.DOCU.BDRiP.H264-Sub.iTA.iCV-MIRCrew
[ documentary | Torrent in Italian | 1.26 GB]

Download this torrent
(Magnet Only for VIP )
Health:
Seeds: 102
Leechers: 403
Completed: 10147 

Tweet


  
  

Description / Information (i): Show or Hide Description

General
Unique ID : 260405682576663177361116141484414332962 (0xC3E84F67B6C5887AF3D910CD01D7F022)
Complete name : Eric.Clapton.Life.in.12.Bars.2018.iTA.DOCU.BDRiP.H264-Sub.iTA.iCV-MIRCrew.mkv
Format : Matroska
Format version : Version 2
File size : 1.25 GiB
Duration : 2h 12mn
Overall bit rate : 1 348 Kbps
Movie name : www.icv-crew.org
Encoded date : UTC 2017-07-12 19:23:00
Writing application : Lavf54.63.100
Writing library : Lavf54.63.100
COPYRIGHT : robbyrs

Video
ID : 1
Format : AVC
Format/Info : Advanced Video Codec
Format profile : Main@L4.1
Format settings, CABAC : Yes
Format settings, ReFrames : 2 frames
Codec ID : V_MPEG4/ISO/AVC
Duration : 2h 12mn
Bit rate : 1 208 Kbps
Nominal bit rate : 1 279 Kbps
Width : 720 pixels
Height : 388 pixels
Display aspect ratio: 1.85:1
Frame rate mode : Variable
Frame rate : 23.976 fps
Color space : YUV
Chroma subsampling : 4:2:0
Bit depth : 8 bits
Scan type : Progressive
Bits/(Pixel*Frame) : 0.175
Stream size : 1.13 GiB (90%)
Writing library : x264 core 130 r2273
Encoding settings : cabac=1 / ref=2 / deblock=1:0:0 / analyse=0x1:0x131 / me=hex / subme=7 / psy=1 / psy_rd=1.00:0.00 / mixed_ref=0 / me_range=16 / chroma_me=1 / trellis=1 / 8x8dct=0 / cqm=0 / deadzone=21,11 / fast_pskip=1 / chroma_qp_offset=-2 / threads=12 / lookahead_threads=2 / sliced_threads=0 / nr=0 / decimate=1 / interlaced=0 / bluray_compat=0 / constrained_intra=0 / bframes=3 / b_pyramid=0 / b_adapt=1 / b_bias=0 / direct=3 / weightb=1 / open_gop=0 / weightp=2 / keyint=230 / keyint_min=23 / scenecut=40 / intra_refresh=0 / rc_lookahead=40 / rc=abr / mbtree=1 / bitrate=1290 / ratetol=1.0 / qcomp=0.60 / qpmin=10 / qpmax=69 / qpstep=4 / vbv_maxrate=24000 / vbv_bufsize=24000 / nal_hrd=none / ip_ratio=1.40 / aq=1:1.00
Language : English
Default : Yes
Forced : No
DURATION : 02:11:51.768000000
NUMBER_OF_FRAMES : 152314
NUMBER_OF_BYTES : 7020437450
_STATISTICS_WRITING_APP : mkvmerge v8.7.0 ('All of the above') 64bit
_STATISTICS_WRITING_DATE_UTC : 2017-07-12 18:45:57
_STATISTICS_TAGS : BPS DURATION NUMBER_OF_FRAMES NUMBER_OF_BYTES


Audio
ID : 2
Format : AAC
Format/Info : Advanced Audio Codec
Format profile : LC
Codec ID : A_AAC
Duration : 2h 12mn
Bit rate : 138 kb/s
Channel(s) : 2 channels
Channel positions : Front: L R
Sampling rate : 48.0 kHz
Frame rate : 46.875 FPS (1024 SPF)
Compression mode : Lossy
Delay relative to video : 9 ms
Stream size : 132 MiB (10%)
Language : Italian
Default : Yes
Forced : No
DURATION : 02:11:51.768000000
NUMBER_OF_FRAMES : 198524
NUMBER_OF_BYTES : 508221440
_STATISTICS_WRITING_APP : mkvmerge v8.7.0 ('All of the above') 64bit
_STATISTICS_WRITING_DATE_UTC : 2017-07-12 18:45:57
_STATISTICS_TAGS : BPS DURATION NUMBER_OF_FRAMES NUMBER_OF_BYTES

Text
ID : 3
Format : ASS
Codec ID : S_TEXT/ASS
Codec ID/Info : Advanced Sub Station Alpha
Compression mode : Lossless
Title : FORCED
Language : Italian
Default : Yes
Forced : Yes
DURATION : 02:11:51.768000000
NUMBER_OF_FRAMES : 1268
NUMBER_OF_BYTES : 54087
_STATISTICS_WRITING_APP : mkvmerge v8.7.0 ('All of the above') 64bit
_STATISTICS_WRITING_DATE_UTC : 2017-07-12 18:45:57
_STATISTICS_TAGS : BPS DURATION NUMBER_OF_FRAMES NUMBER_OF_BYTES

Menu
00:00:00.000 : :00:00:00.000
00:07:05.342 : :00:07:05.342
00:14:28.201 : :00:14:28.201
00:20:13.838 : :00:20:13.838
00:29:27.099 : :00:29:27.099
00:39:02.590 : :00:39:02.590
00:50:56.804 : :00:50:56.804
00:59:52.756 : :00:59:52.756
01:08:53.129 : :01:08:53.129
01:16:19.950 : :01:16:19.950
01:25:27.706 : :01:25:27.706
01:35:23.259 : :01:35:23.259
01:42:10.200 : :01:42:10:200
01:51:16.200 : :01:51:16.200
02:00:24.200 : :02:00:24.200
02:02:35.200 : :02:02:35.200
02:10:16.200 : :02:10:16.200
Torrent Info:Type: BRRip | BDRip | HDRip | Size: 1.26 GB | Hash: System protected! | Added on: 13-07-2018 04:23:15 | Views: 4 | Hits: 0
Language:Italian  Italian
Added By:freeroman96
ExtremlymTorrents Android / iOS App:
Publicity 2:How to make money on ExtremlymTorrents? / Cum să faci bani pe ExtremlymTorrents ?
Publicity 3:
Thanks By:No one yet.

Ratings:See Votes Rate this torrent! (Log in now! to rate it)

Uploader Reputatation:   0   Say Thanks with one point of reputation:


 
Comments's: ADD or Hide Comments

DEDSEC:Forums / XTR:TVForums / Radio: Online!


Ora:(
  • :
  • :
)