Anal.Freaks.3.DiSC1.XXX.DVDRip.x264
[ Milf , Big Butts , Big Tits | Torrent in English | 1.65 GB]
Only VIPOnly VIP's can download this torrent.
(Magnet Only for VIP )
Health:
Seeds: 609
Leechers: 230
Completed: 6970 
Last Checked: 24-09-2022 05:19:30 : Click to UPDATE STATS! [This can take some time!]
0
0
0
0
0
  



Description | Information (i): Show or Hide Description

Video
ID : 1
Format : AVC
Format/Info : Advanced Video Codec
Format profile : High@L3.1
Format settings : CABAC / 5 Ref Frames
Format settings, CABAC : Yes
Format settings, Reference frames : 5 frames
Codec ID : avc1
Codec ID/Info : Advanced Video Coding
Duration : 2 h 56 min
Bit rate : 1 206 kb/s
Width : 720 pixels
Height : 406 pixels
Display aspect ratio : 16:9
Frame rate mode : Constant
Frame rate : 23.976 (24000/1001) FPS
Color space : YUV
Chroma subsampling : 4:2:0
Bit depth : 8 bits
Scan type : Progressive
Bits/(Pixel*Frame) : 0.172
Stream size : 1.49 GiB (90%)
Writing library : x264 core 164 r3081 19856cc
Encoding settings : cabac=1 / ref=5 / deblock=1:0:0 / analyse=0x3:0x113 / me=hex / subme=8 / psy=1 / psy_rd=1.00:0.00 / mixed_ref=1 / me_range=16 / chroma_me=1 / trellis=2 / 8x8dct=1 / cqm=0 / deadzone=21,11 / fast_pskip=0 / chroma_qp_offset=-2 / threads=13 / lookahead_threads=2 / sliced_threads=0 / nr=0 / decimate=1 / interlaced=0 / bluray_compat=0 / constrained_intra=0 / bframes=3 / b_pyramid=2 / b_adapt=1 / b_bias=0 / direct=3 / weightb=1 / open_gop=0 / weightp=2 / keyint=240 / keyint_min=23 / scenecut=40 / intra_refresh=0 / rc_lookahead=50 / rc=crf / mbtree=1 / crf=20.0 / qcomp=0.60 / qpmin=0 / qpmax=69 / qpstep=4 / ip_ratio=1.40 / aq=1:1.00
Codec configuration box : avcC

Audio
ID : 2
Format : AAC LC
Format/Info : Advanced Audio Codec Low Complexity
Codec ID : mp4a-40-2
Duration : 2 h 56 min
Duration_LastFrame : -7 ms
Bit rate mode : Constant
Bit rate : 128 kb/s
Channel(s) : 2 channels
Channel layout : L R
Sampling rate : 48.0 kHz
Frame rate : 46.875 FPS (1024 SPF)
Compression mode : Lossy
Stream size : 162 MiB (10%)
Default : Yes
Alternate group : 1
Torrent Info:Type: Porn HD -[+18] -xXx- | Size: 1.65 GB | Hash: System protected! | Added on: 23.09.2022 17:35:13 | Views: 9 | Hits: 0
Language:English  English
Added By:TAEN
Thanks By:No one yet.
Ratings:See Votes Rate this torrent! (Log in now! to rate it)
Uploader Reputatation:   11   Say Thanks with one point of reputation:
28 | 0 | 7
0 | 0 | 0
23842 | 319 | 11
0 | 0 | 0
827 | 23 | 0

 Comment's: ADD or Hide Comments

Online Since 10.09.2011 - 2021 | YouTube: Media | GitHub: Jackett | GitHub: Web Extensions PT | XTR: TVForums | ULOZ BACKUP: XTR Media | OKRU: Media | XTR: Android APP | Donate: BTC ETH CRYPTO
Ora:(
  • :
  • :
)